Black Christmas (1974) - CultMoviez!
Latest Movie :

Black Christmas (1974)

Imdb
Filmaffinity
Rottentomatoes

Durante el descanso de Navidad, las chicas de una fraternidad se preparan para retornar con sus familias, pero antes deciden hacer una fiesta. Durante la misma, las jóvenes reciben llamadas extrañas de un acosador, quien hace sonidos escalofriantes y se oyen diferentes voces, así como frases obcenas. Posteriormente, una de las chicas desaparece. Gran película de culto precursora del genero que inspiro a muchas famosas como Halloween,  John Carpenter's dice amar esta película y con razón si gracias a ella pudo inmortalizar su carrera,  Bob Clark un director que parece le gusta la navidad, no es la única que hace con el tema, parece que le fue bien, esta película esta entre las 5 mejores del genero según About, esta protagonizada por la hermosa actriz Argentina Olivia Hussey muy famosa por su actuación en Romeo and Juliet, se considera la primera película de slaher (género de asesinos con armas cortantes), podríamos marcar el hecho de que el asesino nunca aparece en pantalla. ¿Cómo es esto? Siempre que el personaje entra en acción, la cámara toma la secuencia en primera persona desde su punto de vista.
Y lo mejor un final espectacular, sorprende y es realmente aterrador.
 Clásico de culto 





DATOS DEL RIP


Format                           : AVI
Format/Info                      : Audio Video Interleave
File size                        : 701 MiB
Duration                         : 1h 37mn
Overall bit rate                 : 1 002 Kbps
Writing application              : Noir's Hyper HD Xvid
Writing library                  : VirtualDub build 30586/release
Original source form             : Noir's Shit
Copyright                        : By Noir

Video
ID                               : 0
Format                           : MPEG-4 Visual
Format profile                   : AdvancedSimple@L5
Format settings, BVOP            : Yes
Format settings, QPel            : No
Format settings, GMC             : No warppoints
Format settings, Matrix          : Default (H.263)
Muxing mode                      : Packed bitstream
Codec ID                         : XVID
Codec ID/Hint                    : XviD
Duration                         : 1h 37mn
Bit rate                         : 899 Kbps
Width                            : 624 pixels
Height                           : 336 pixels
Display aspect ratio             : 1.857
Frame rate                       : 23.976 fps
Resolution                       : 24 bits
Colorimetry                      : 4:2:0
Scan type                        : Progressive
Bits/(Pixel*Frame)               : 0.179
Stream size                      : 629 MiB (90%)
Writing library                  : XviD 1.2.1 (UTC 2008-12-04)

Audio
ID                               : 1
Format                           : MPEG Audio
Format version                   : Version 1
Format profile                   : Layer 3
Format settings, Mode            : Joint stereo / MS Stereo
Codec ID                         : 55
Codec ID/Hint                    : MP3
Duration                         : 1h 37mn
Bit rate mode                    : Variable
Bit rate                         : 128 Kbps
Minimum bit rate                 : 128 Kbps
Channel(s)                       : 2 channels
Sampling rate                    : 48.0 KHz
Resolution                       : 16 bits
Stream size                      : 62.8 MiB (9%)
Alignment                        : Aligned on interleaves
Interleave, duration             : 24 ms (0.58 video frame)
Interleave, preload duration     : 316 ms
Writing library                  : LAME3.98r
Encoding settings                : -m j -V 5 -q 0 -lowpass 16.5 --vbr-new -b 128

COVERS


CAPS


TRAILER


Share this article :

+ comentarios + 9 comentarios

Anónimo
29 de diciembre de 2009, 10:20

Muchas gracias por subir esta película, tenía ganas de verla desde hace tiempo. Y enhorabuena por la página, estoy impresionado con la selección de títulos. Seguid así :)

4 de abril de 2012, 15:46

¡Hola! he seguido seguidor de este blog desde siempre y vivo agradecido por el material tan selecto que tienen... tengo una pregunta: ¿cómo puedo hacer para descargar, por ejemplo, este película? por una lado, me piden que pague, con un mes de membrecía gratis, para ver filmes online... y del otro, me piden mi número celular... No sé si esto último hace parte del servidor para descargar, me gustaría que por favor me aclararan eso... Sin más, me suscribo en espera de una pronta respuesta.

4 de abril de 2012, 15:47

Retiro el comentario anterior, ya encontré cómo... Mil gracias y perdón por las molestias :)

4 de abril de 2012, 15:49

¿Es normal poner el número de móvil? Luego pide un código... Por favor, ayuda para poder acceder al material. Gracias.

4 de abril de 2012, 16:49

Al final no me quedo claro si pudiste descargarlo o no :P

Luego de hacer click en descargar, te va a salir la pagina de ad.fly. Ahi no le prestes atencion a nada de lo que te aparece, solamente al conteo de arriba a la derecha. Una vez que llega a 0, clickeas en SALTAR PUBLICIDAD. Y luego en la pagina de jumbofiles, click en Download File. Luego te sale el nombre del archivo y un link abajo. Ese es el link de descarga

Anónimo
4 de abril de 2012, 21:48

¿que tiene que ver Romeo y Julieta?

4 de abril de 2012, 22:01

La actriz

4 de abril de 2012, 22:14

Descargando, lento, pero descargando... muchas gracias, no sé por qué me enredé :)

4 de abril de 2012, 23:27

creo que este server descarga igual de rápido a mediafire usa un gestor de descargas como el idm o el jdowloader. Saludos.

Publicar un comentario en la entrada



Ayúdanos comentando las películas, puedes publicar subtítulos mejor sincronizados y en diferentes idiomas, mirrors en mediafire.com, Jumbofiles.com, bayfiles.com, glumbouploads.com, rapidshare.com, hotfile.com, nedload.com, cramit.in, megashares.com, letitbit.net, vip-file.com, x7.to, gigasize.com, filezzz.com, filebox.com, depositfiles.com, yourfilesender.com, bitshare.com, o cualquier otro servidor que uses, dvdfull, dvdr5, dvdrip, 720p, 1080p, archivos torrent, emule, soundtrack, banda sonora, OST. 



Evita poner contraseñas o nombres con url de otra web que no sea esta, evita las palabras ofensivas, evita hacer spam, recuerda que en este sitio se comparte solo por placer, así que cualquier aporte es bienvenido.



Para más información

Escríbenos a cinemadeculto@gmail.com

 
Support : Creating Website | Johny Template | Mas Template
Copyright © 2011. CultMoviez! - All Rights Reserved
Template Created by Creating Website Published by Mas Template
Proudly powered by Blogger