El topo (1970) - CultMoviez!
Latest Movie :

El topo (1970)


Imdb
Filmaffinity
Rottentomatoes

En un oeste simbólico, el pistolero Topo se enfrenta a una banda de fetichistas, comandada por un coronel lascivo, que mantiene asolada a una congregación franciscana.John Lennon dijo de ella que era una obra maestra. Singular y provocativa película de culto, mezcla de géneros y movimientos culturales,  Jodorowsky logra reencontrarse al final de la película, con un guión sugerente provoca al espectador sensaciones y emociones que es raro ver en la mayoría de las películas convencionales, ya sean comerciales o de autor, el guión tambien es complejo pero con mucha sustancia en el cual se pueden sacar algunas conclusiones. En definitiva sí quieren ver una película diferente, está lo es.
Matapuces. 
(DVDrip español, con subtitulos en ingles, datos del rip capturas , trailer y posters en mas información)




POSTER



CAPS



DATOS DEL RIP

Format : AVI
Format/Info : Audio Video Interleave
File size: 700 MiB
Duration : 1h 59mn
Overall bit rate : 817 Kbps
Writing application: VirtualDubMod 1.5.4.1 (build 2178/release)
Writing library: VirtualDubMod build 2178/release

Video
ID : 0
Format: MPEG-4 Visual
Format profile: AdvancedSimple@L5
Format settings, BVOP: Yes
Format settings, QPel : No
Format settings, GMC: No warppoints
Format settings, Matrix: Custom
Codec ID: XVID
Codec ID/Hint: XviD
Duration: 1h 59mn
Bit rate: 680 Kbps
Width: 368 pixels
Height: 272 pixels
Display aspect ratio: 4:3
Frame rate: 25.000 fps
Resolution: 24 bits
Colorimetry : 4:2:0
Scan type: Progressive
Bits/(Pixel*Frame): 0.272
Stream size: 583 MiB (83%)
Writing library: XviD 1.0.2 (UTC 2004-08-29)

Audio
ID: 1
Format: MPEG Audio
Format version: Version 1
Format profile: Layer 3
Format settings, Mode: Joint stereo / MS Stereo
Codec ID: 55
Codec ID/Hint: MP3
Duration 1h 59mn
Bit rate mode: Variable
Bit rate: 124 Kbps
Nominal bit rate: 128 Kbps
Channel(s): 2 channels
Sampling rate: 48.0 KHz
Resolution: 16 bits
Stream size: 106 MiB (15%)
Alignment: Aligned on interleaves
Interleave, duration: 24 ms (0.60 video frame)
Interleave, preload duration: 468 ms
Writing library: LAME3.90.
Encoding settings: -m j -V 4 -q 2 -lowpass 17.6 --abr 128
Language: Spanish




DESCARGAR
MIRROR 01 / 02
MIRROR 720p

SOUNDTRACK


01.Burial of the First Toy
02.Under the Earth
03.The Pigs Monastery
04.The Holy Beggars
05.Death is Birth
06.Mexican Curios
07.Living Water
08.Vals Fantasma
09.The Soul Born in the Blood
10.Topo Triste
11.The Sugar Gods
12.Flowers Born in the Mud
13.The Hell of the Prostituted Angels
14.March of the Eyes in the Triangles
15.The Pain of the Honey
16.300 Rabbits
17.Knowledge Through Music
18.The First Flower After the Flood






TRAILER




Share this article :

+ comentarios + 7 comentarios

25 de junio de 2010, 3:32

Bizare Western with clear LSD influences

See Holy Mountain aswell

24 de junio de 2011, 8:01

totalmente un hermoso mindfuck!

Anónimo
6 de mayo de 2012, 8:37

He escuchado mucho sbre esta pelìcula, bajando, gracias por compartir!!!!
Bufòn.

Anónimo
8 de mayo de 2012, 20:06

Cuando descomprimo me da error!!! :(
Bufòn.

erasmo
15 de mayo de 2012, 20:21

a mi tambien me da a error al descomprimir

16 de mayo de 2012, 0:38

Sociólogo de su tiempo y en su arte, Jodorowski nos muestra una vez más de qué estamos hechos y de cómo el simple hecho de estar constituidos por todo aquello, nos desilusiona y nos cambia, nos capacita y habilita, a través de la experiencia para seguir oprimiéndonos en las entrañas de la tierra, del dolor colectivo que marca el tiempo, el lugar y la propia existencia de la humanidad. En mi opinión, en la experiencia de ser "el hombre lobo para el hombre" o bien una bestia menor como es en este caso: un topo, Jodorowski retrata una necesidad espiritual por exponer los sentimientos de una época, de su mundo y sus creencias más férreas, que resultan notables por su imaginería intrincada y precisa. Gran Obra de Arte.

27 de mayo de 2012, 20:03

Agregado mirror

Publicar un comentario en la entrada



Ayúdanos comentando las películas, puedes publicar subtítulos mejor sincronizados y en diferentes idiomas, mirrors en mediafire.com, Jumbofiles.com, bayfiles.com, glumbouploads.com, rapidshare.com, hotfile.com, nedload.com, cramit.in, megashares.com, letitbit.net, vip-file.com, x7.to, gigasize.com, filezzz.com, filebox.com, depositfiles.com, yourfilesender.com, bitshare.com, o cualquier otro servidor que uses, dvdfull, dvdr5, dvdrip, 720p, 1080p, archivos torrent, emule, soundtrack, banda sonora, OST. 



Evita poner contraseñas o nombres con url de otra web que no sea esta, evita las palabras ofensivas, evita hacer spam, recuerda que en este sitio se comparte solo por placer, así que cualquier aporte es bienvenido.



Para más información

Escríbenos a cinemadeculto@gmail.com

 
Support : Creating Website | Johny Template | Mas Template
Copyright © 2011. CultMoviez! - All Rights Reserved
Template Created by Creating Website Published by Mas Template
Proudly powered by Blogger