The Crazies (1973) - CultMoviez!
Latest Movie :

The Crazies (1973)



Imdb
Filmaffinity

George A. Romero (4 de febrero de 1940) es un director, escritor, editor y actor norteamericano. Nacido en Nueva York, pasó sus años de infancia en el Bronx,  Siendo un adolescente  recibió una cámara de 8 mm como regalo de cumpleaños de sus padres, y pronto estaba grabando todo lo que a la vista, después de completar la escuela secundaria,  se mudó a Pittsburgh para asistir a la Carnegie Institute of Technology (actualmente Carnegie Mellon University), donde estudió arte, el diseño y el teatro. y desarrolló un interés por las películas después de ver las viejas películas de terror de la Universal . "The Crazies" realizada en 5 años despues de su opera prima "The of the living dead"  no consiguió cosechar el éxito de su trilogía de Zombis. Esta vez los Zombis son intercambiados por locos, la gente es infectada por un virus y poco a poco iran enloqueciendo matando a todo aquel que se ponga delante, el cine siempre tuvo la curiosidad de ser alguna forma como un oraculo de nuestros tiempos, decadas antes de la amenaza impuesta de los brotes virales como el  Ántrax, el SARS, las aves y la gripe porcina, Lamentablemente The Crazies es a menudo considerada como una obra menor en el canon de Romero, pero fue un paso  importante hacia proyectos más ambiciosos, como el amanecer de los muertos y los caballeros de la moto (1981), La película es sugerente, ingeniosa, pero carece de algunas cosas para llegar a ser una gran película, de todas formas es una joyita que llego a influir a DAnny Boyle para realizar su "28 dias Despues", , .. 







DATOS DEL RIP

Format : AVI
File size : 678 MiB
Duration : 1h 43mn
Overall bit rate : 919 Kbps

Video
Format : MPEG-4 Visual
Codec ID : DX50
Codec ID/Hint : DivX 5
Duration : 1h 43mn
Bit rate : 780 Kbps
Width : 352 pixels
Height : 264 pixels
Display aspect ratio : 4:3
Frame rate : 29.970 fps
Resolution : 8 bits
Colorimetry : 4:2:0
Scan type : Progressive
Bits/(Pixel*Frame) : 0.280
Stream size : 575 MiB (85%)
Writing library : DivX 6.6.1.4

Audio
Format : MPEG Audio
Format version : Version 1
Format profile : Layer 3
Codec ID : 55
Codec ID/Hint : MP3
Duration : 1h 43mn
Bit rate mode : Constant
Bit rate : 128 Kbps
Channel(s) : 2 channels
Sampling rate : 44.1 KHz
Video delay : 26ms
Stream size : 94.3 MiB (14%)
Alignment : Split accross interleaves
Interleave, duration : 33 ms (1.00 video frame)
Title : Audio Stream
Lenguage: English



POSTER











CAPS














TRAILER

Share this article :

+ comentarios + 6 comentarios

Anónimo
5 de febrero de 2010, 9:46

Injustamente subestimada magistral epopeya paranoica; si me permiten, quien podria con tan escasos recursos intentar esta trama sin resultar en penoso ridículo?
Solo un genio: Jorgito(?)Romero!
Gracias por los loquitos éstos!


Eraserbed

5 de febrero de 2010, 12:17

Brutal subida. Hacia tiempo que estaba en mi lista de pelis imposibles de encontrar!!! La verdad es que no se como lo hacéis...

Mil gracias.
Carlos.

5 de febrero de 2010, 21:17

Anomimo: es una buena pelicula, eran tiempos donde se
trabajan mas sobre el contenido que la imagen
y el resultado no era tan malo

C; tampoco es tan dificil de encontrar
que la disfrutes

6 de enero de 2011, 7:10

Anomimo: es una buena pelicula, eran tiempos donde se
trabajan mas sobre el contenido que la imagen
y el resultado no era tan malo

C; tampoco es tan dificil de encontrar
que la disfrutes

Anónimo
28 de marzo de 2011, 19:04

link roto

16 de junio de 2012, 22:33

Excelente filme! Lástima que como otros que he descargado ndel blog últimamente "Memories of Matsuko", "Redemption" y ahora ésta, siempre el clip queda cortado unos veinte minutos antes de que se acabe el metraje... Este por ejemplo,llega hasta 1 hora y diez minutos...

¿Será que estoy haciendo algo mal? ¿Hay alguna instrucción especial que esté obviando para que los filmes que descargo de este blog salgan así? Les agradecería una pronta respuesta. Un cordial saludo.

Publicar un comentario en la entrada



Ayúdanos comentando las películas, puedes publicar subtítulos mejor sincronizados y en diferentes idiomas, mirrors en mediafire.com, Jumbofiles.com, bayfiles.com, glumbouploads.com, rapidshare.com, hotfile.com, nedload.com, cramit.in, megashares.com, letitbit.net, vip-file.com, x7.to, gigasize.com, filezzz.com, filebox.com, depositfiles.com, yourfilesender.com, bitshare.com, o cualquier otro servidor que uses, dvdfull, dvdr5, dvdrip, 720p, 1080p, archivos torrent, emule, soundtrack, banda sonora, OST. 



Evita poner contraseñas o nombres con url de otra web que no sea esta, evita las palabras ofensivas, evita hacer spam, recuerda que en este sitio se comparte solo por placer, así que cualquier aporte es bienvenido.



Para más información

Escríbenos a cinemadeculto@gmail.com

 
Support : Creating Website | Johny Template | Mas Template
Copyright © 2011. CultMoviez! - All Rights Reserved
Template Created by Creating Website Published by Mas Template
Proudly powered by Blogger