The Harder They Come (1972) - CultMoviez!
Latest Movie :

The Harder They Come (1972)



Imdb
Filmaffinity
Rottentomatoes


Perry Henzel es el realizador que en 1973 concibiera, uno de las más queridas y  favoritas películas de culto internacional. "Caiga quien Caiga". "La película está protagonizada por Jimmy Cliff un pobre músico jamaicano Iván Martín. Iván quiere más de la vida, por lo que se muda a la ciudad capital de Kingston. Después de enterarse de que ha estado trabajando para un productor de discos corrupto, Iván vuelve a las calles para sobrevivir, pero tiene que mantener a la policía en el bolsillo para evitar que interfieran con su negocio. El mundo cambia drásticamente cuando el negocio de Ivan es anallado  y se produce la violencia."  La importancia cultural del Film debido a su critica a la situacion politica y social de Jamaica es abrumadora, con una banda sonora considerado por muchos como el álbum de reggae más importante del mundo, Un film bastante precario en el aspecto técnico pero mezclado con un dejo del realismo italiano, la nueva ola francesa, y películas del Oeste americano, hacen de "Caiga quien Caiga" una pelicula de culto en todos los sentidos. Comentario realizado por Dantino. (DVDrip, Datos del Rip, Poster, Caps y Trailer en "Mas Información") .

DESCARGAR 01 / 02 / 03 / 04 / 05
DATOS DEL RIP

Format: Matroska
File size: 981 MiB
Duration: 1h 42mn
Overall bit rate: 1 331 Kbps
Movie name: WaTESAM_The.Harder.They.Come.1972.CRiTERiON.iNTERNAL.DVDRiP
Writing application : Lavf52.33.0 Writing library: Lavf52.33.0

Video ID 1 Format: AVC
Format/Info: Advanced Video Codec
Format profile: Baseline@L1.3 Format settings,
CABAC: No Format settings,
ReFrames: 1 frame Muxing mode: Container profile=Unknown@1.3
Codec ID: V_MPEG4/ISO/AVC
Duration: 1h 42mn
Bit rate: 1 113 Kbps
Width : 800 pixels Height : 480 pixels
Display aspect ratio: 1.667
Frame rate  : 23.976 fps
Resolution : 8 bits
Colorimetry  : 4:2:0
Scan type   : Progressive
Bits/(Pixel*Frame)  : 0.121
Stream size : 819 MiB (84%)

Audio ID: 2 Format: AC-3
Format/Inf : Audio Coding 3
Codec ID: A_AC3
Duration: 1h 42mn
Bit rate mode: Constant Bit rate: 192 Kbps
Channel(s): 1 channel Channel
positions: C Sampling rate: 48.0 KHz
Resolution: 16 bits Stream size: 141 MiB (14%)
POSTERS
CAPS
TRAILER


Share this article :

+ comentarios + 14 comentarios

Anónimo
7 de mayo de 2010, 13:30

saludos desde mexico... oye descargue la pelicula y se me corta en los primeros 5 minutos

8 de mayo de 2010, 0:07

Este es un muy buen rip, seguro necesitas actualizar tus codecs o la bajaste mal, mira que megavideo la codifico sin problemas, por que tu no podrias verlo si un programa puede
Un saludo

23 de junio de 2010, 18:08

Zeke:
Excelente!!! Muy buen aporte! Descargando, despues te digo que tal.. saludos

12 de agosto de 2010, 14:19

saludos desde méxico. lástima que el formato no sea rmvb o avi. excelente blog, felicidades!

4 de septiembre de 2010, 19:25

Es MKV H.264 Codecs y contenedores de alta definición, que es mejor nena

6 de enero de 2011, 7:10

Es MKV H.264 Codecs y contenedores de alta definición, que es mejor nena

6 de enero de 2011, 7:10

saludos desde méxico. lástima que el formato no sea rmvb o avi. excelente blog, felicidades!

6 de enero de 2011, 7:10

Zeke:
Excelente!!! Muy buen aporte! Descargando, despues te digo que tal.. saludos

6 de enero de 2011, 7:10

Este es un muy buen rip, seguro necesitas actualizar tus codecs o la bajaste mal, mira que megavideo la codifico sin problemas, por que tu no podrias verlo si un programa puede
Un saludo

Anónimo
22 de abril de 2011, 1:09

Me la llevo a ver que onda, muchas gracias por mantener vivo el mejor blog de cine que conozco.

Anónimo
25 de agosto de 2011, 17:05

GRACIAS POR LA PELICULA, PELICULAS DE ESTAS EN MUY DIFICIL ENCONTRALAS.
MAXIMO RESPETO

Anónimo
21 de septiembre de 2011, 11:17

Muchas gracias por el aporte, vaya peliculón!!!
Salud!!!

29 de enero de 2012, 1:10

hola tendras los subtitulos del audio de los comentarios del director?? saludos (viajedeida@yahoo.com.ar)

Anónimo
15 de mayo de 2012, 4:31

Gracias Mil!!. Peliculon y musicon.

Publicar un comentario en la entrada



Ayúdanos comentando las películas, puedes publicar subtítulos mejor sincronizados y en diferentes idiomas, mirrors en mediafire.com, Jumbofiles.com, bayfiles.com, glumbouploads.com, rapidshare.com, hotfile.com, nedload.com, cramit.in, megashares.com, letitbit.net, vip-file.com, x7.to, gigasize.com, filezzz.com, filebox.com, depositfiles.com, yourfilesender.com, bitshare.com, o cualquier otro servidor que uses, dvdfull, dvdr5, dvdrip, 720p, 1080p, archivos torrent, emule, soundtrack, banda sonora, OST. 



Evita poner contraseñas o nombres con url de otra web que no sea esta, evita las palabras ofensivas, evita hacer spam, recuerda que en este sitio se comparte solo por placer, así que cualquier aporte es bienvenido.



Para más información

Escríbenos a cinemadeculto@gmail.com

 
Support : Creating Website | Johny Template | Mas Template
Copyright © 2011. CultMoviez! - All Rights Reserved
Template Created by Creating Website Published by Mas Template
Proudly powered by Blogger