Stacy Attack Of The Schoolgirl Zombies: Stacy (2001) - CultMoviez!
Latest Movie :

Stacy Attack Of The Schoolgirl Zombies: Stacy (2001)

Imdb
Filmaffinity
Aullidos

De la noche a la mañana, una enfermedad desconocida, desconcertante y letal se extiende por todo el mundo, afectando únicamente a chicas adolescentes, de entre 15 y 17 años. Dicha enfermedad hace que las Stacy (apelativo con que son conocidas las infectadas) entren en un estado de absoluta felicidad pre-mortem, antes de convertirse en zombies.En medio de este surrealista, trágico y brutal panorama, un chico se unirá al Equipo Romero (brigada militar anti-Stacy) para encontrar a su novia zombie, mientras no muy lejos, una Stacy tratará de demostrar que ni siquiera la muerte puede romper el amor que existe entre ella y un titiritero.
Otro film serie b, muy delirante y bizarro mas que una comedia de terror zombies es una sátira que a la vez hace homenaje a los films de nuestro querido Romero y a la saga Evil Dead, una joyita infravalorada del cine gore con gran estética, absurda  pero muy divertida, las nipponas vestidas de colegialas son un fetiche que se toma el mundo y en especial en el 2001 donde también se pudo ver Suicide Circle mientras en esa Eran nenas abducidas al suicidio por mensajes subliminales en esta se vuelven zombies y después las descuartizan con motosierras, parece fuerte pero es mas lo divertida no se le nota las ganas de asustar al director Naoyuki Tomomatsu. Bien recomendada para los amantes del genero, el detalle del negocio al rededor de Stacy sobre todo cuando promocionan las motocierras Bruce Capbell Right Hand II, quien no recuerda a Ash protagonista de la saga Evil Dead uno de los iconos del genero. MUY DIVERTIDO  Puro cine de culto
(DVDrip, Datos del Rip, Poster, Caps y Trailer en "Mas Informacion") .


DATOS DEL RIP

Format : AVI

Format/Info : Audio Video Interleave
File size : 693 MiB
Duration : 1h 19mn
Overall bit rate : 1 217 Kbps
Writing application : Nandub v1.0rc2
Writing library : Nandub build 1852/release
Video

ID : 0
Format : MPEG-4 Visual
Format settings, BVOP : Yes
Format settings, QPel : No
Format settings, GMC : 2 warppoints
Format settings, Matrix : Default (H.263)
Muxing mode : Packed bitstream
Codec ID : DX50
Codec ID/Hint : DivX 5
Duration : 1h 19mn
Bit rate : 1 072 Kbps
Width : 672 pixels
Height : 384 pixels
Display aspect ratio : 16:9
Frame rate : 23.976 fps
Resolution : 8 bits
Scan type : Progressive
Bits/(Pixel*Frame) : 0.173
Stream size : 611 MiB (88%)
Writing library : DivX 5.0.2 (UTC 2002-05-16)

Audio

ID : 1
Format : MPEG Audio
Format version : Version 1
Format profile : Layer 3
Format_Settings_Mode : Joint stereo
Format_Settings_ModeExtension : MS Stereo
Codec ID : 55
Codec ID/Hint : MP3
Duration : 1h 19mn
Bit rate mode : Variable
Bit rate : 132 Kbps
Nominal bit rate : 128 Kbps
Channel(s) : 2 channels
Sampling rate : 48.0 KHz
Stream size : 75.1 MiB (11%)
Alignment : Aligned on interleaves
Interleave, duration : 24 ms (0.58 video frame)
Interleave, preload duration : 349 ms
Writing library : LAME3.92
Encoding settings : -m j -V 4 -q 2 -lowpass 17.5 --abr 128
POSTERS


CAPS


TRAILER
Share this article :

+ comentarios + 4 comentarios

banybanyta
24 de marzo de 2010, 15:09

jaja espectacular

banybanyta
6 de enero de 2011, 7:10

jaja espectacular

22 de julio de 2011, 18:27

me han hablado tanto de esta peli que ya me quema verla ;D

Anónimo
28 de julio de 2011, 22:05

hola

Publicar un comentario en la entrada



Ayúdanos comentando las películas, puedes publicar subtítulos mejor sincronizados y en diferentes idiomas, mirrors en mediafire.com, Jumbofiles.com, bayfiles.com, glumbouploads.com, rapidshare.com, hotfile.com, nedload.com, cramit.in, megashares.com, letitbit.net, vip-file.com, x7.to, gigasize.com, filezzz.com, filebox.com, depositfiles.com, yourfilesender.com, bitshare.com, o cualquier otro servidor que uses, dvdfull, dvdr5, dvdrip, 720p, 1080p, archivos torrent, emule, soundtrack, banda sonora, OST. 



Evita poner contraseñas o nombres con url de otra web que no sea esta, evita las palabras ofensivas, evita hacer spam, recuerda que en este sitio se comparte solo por placer, así que cualquier aporte es bienvenido.



Para más información

Escríbenos a cinemadeculto@gmail.com

 
Support : Creating Website | Johny Template | Mas Template
Copyright © 2011. CultMoviez! - All Rights Reserved
Template Created by Creating Website Published by Mas Template
Proudly powered by Blogger