The Honeymoon Killers (1970) - CultMoviez!
Latest Movie :

The Honeymoon Killers (1970)



Imdb
Filmaffinity

En un principio estuvo a cargo de nada mas ni nada menos que un joven MARTIN SCORSESE debido a camarillas internas la direccion corrió a cargo de su guionista y productor Kastle que curiosamente fue su unica pelicula, por esos años La Nouvelle Vague ya estaba fuertemente arraigada en la comunidad artistica, una forma diferente de concebir al mundo otra perspectiva, mas real, mas humana, años antes se estrenaba la "Bonny and Clide" (1967), contrastando todo el glamour de epoca con la verdadera realidad que vivian los personajes, "los asesinos de los corazones solitarios" basado en uno de los casos criminales mas impactantes de esos años, es una respuesta mas real a esa pelicula, mas humana por lo tanto mas oscura y desgarradora.

"Martha Beck (Shirley Stoler)es una enfermera con sobrepeso y desgarradoramente sola. Desesperada por cariño, entabla una relacion por correspondencia con Ray Fernández (Tony Lo Bianco), de buenas maneras, carismático que podría ser el hombre de sus sueños pero en realidad es un estafador con intenciones oscuras...."


Filmada en estilo documental en blanco y negro, "The Honeymoon Killers" es un retrato sombrío de las longitudes desesperadas de un corazón solitario, una pasion  que trasciende, todos los límites.  Una Joya del cine, claustrofobica, violenta, oscura, inmoral y extrañamente fascinante. Para ANTONIONI fue una de las  peliculas mas sublimes que haya visto jamas...., FRANCOIS TRUFFAUT la catalogo como una de las mejores peliculas del cine norteamericano...(Dantino)...........





DATOS DEL RIP

format : Matroska

File size : 981 MiB
Duration : 1h 47mn
Overall bit rate : 1 271 Kbps
Movie name : Watesam.The.Honeymoon.Killers.1970.CRiTERiON.DVDRiP
Writing application : Lavf52.33.0
Writing library : Lavf52.33.0

Video
ID : 1
Format : AVC
Format/Info : Advanced Video Codec
Format profile : Baseline@L1.3
Format settings, CABAC : No
Format settings, ReFrames : 1 frame
Muxing mode : Container profile=Unknown@1.3
Codec ID : V_MPEG4/ISO/AVC
Duration : 1h 47mn
Bit rate : 1 054 Kbps
Width : 800 pixels
Height : 432 pixels
Display aspect ratio : 1.852
Frame rate : 23.976 fps
Resolution : 8 bits
Colorimetry : 4:2:0
Scan type : Progressive
Bits/(Pixel*Frame) : 0.127
Stream size : 812 MiB (83%)

Audio
ID : 2
Format : AC-3
Format/Info : Audio Coding 3
Codec ID : A_AC3
Duration : 1h 47mn
Bit rate mode : Constant
Bit rate : 192 Kbps
Channel(s) : 1 channel
Channel positions : C
Sampling rate : 48.0 KHz
Resolution : 16 bits
Stream size : 148 MiB (15%)


DATOS DEL RIP




POSTER












CAPS



TRAILER
Share this article :

+ comentarios + 10 comentarios

Anónimo
9 de abril de 2010, 9:35

Estimados, antes que nada, mil gracias por tanto buen cine¡¡¡¡ No paro de bajar las peliculas que postean ¡¡¡. Les queria avisar que el link de "Honeymoon killers" esta equivocado, y aparece el de "Karakter". Ya me baje Karakter y quiero honeymoon, cuando puedan, por favor, arreglenglo. GRACIASSSSSSSS¡¡¡¡¡¡
Santiago

9 de abril de 2010, 11:29

Funcionando
Saludos

9 de abril de 2010, 13:44

Una maravilla de película, querido amigo. Brutal y sin concesiones. Una joya que guardo en dvd como si fuese oro.
Un saludo

11 de abril de 2010, 4:52

Un gran clásico!

saludos!

11 de abril de 2010, 10:41

Crowley: si la verdad una joyita que merece tener el DVD en el estante, hay mucha gente que por razones geograficas no puede hacerse de uno ... lamentablemente, pero cultmoviez mediante....
gracias por pasar

Dr Insermini: la pude identificar en uno sus fotogramas en una entrada dr. usted si que sabe de cine

saludos y gracias por pasar

cufa33
13 de abril de 2010, 14:00

Me parece que ripstein filmó una version de la historia creo que se llama profundo carmesi; tambien hay una mucho mas reciente con travolta y salma hayek, esta ultima es muy mala.

descargando...

13 de abril de 2010, 20:32

muy bien, es verdad el mexicano hizo una adaptacion de esta pelicula por cierto muy aceptable es mas es uno de sus mayores logros

gracias por pasar

saludos

20 de abril de 2010, 10:26

Heyyy, comencé a verla, pero era un día que me pilló cansado y la corté al ratico, para no cargarla. Es otra que un momento me la veo, porque he escuchado maravillas.

Saludos dantino.

21 de abril de 2010, 21:46

es una excelente peliculas
que requiere todos los sentidos

gracias por pasar Davidgore

Hank
9 de septiembre de 2011, 15:42

Espectacular, bajando... Gracias !!!

Publicar un comentario en la entrada



Ayúdanos comentando las películas, puedes publicar subtítulos mejor sincronizados y en diferentes idiomas, mirrors en mediafire.com, Jumbofiles.com, bayfiles.com, glumbouploads.com, rapidshare.com, hotfile.com, nedload.com, cramit.in, megashares.com, letitbit.net, vip-file.com, x7.to, gigasize.com, filezzz.com, filebox.com, depositfiles.com, yourfilesender.com, bitshare.com, o cualquier otro servidor que uses, dvdfull, dvdr5, dvdrip, 720p, 1080p, archivos torrent, emule, soundtrack, banda sonora, OST. 



Evita poner contraseñas o nombres con url de otra web que no sea esta, evita las palabras ofensivas, evita hacer spam, recuerda que en este sitio se comparte solo por placer, así que cualquier aporte es bienvenido.



Para más información

Escríbenos a cinemadeculto@gmail.com

 
Support : Creating Website | Johny Template | Mas Template
Copyright © 2011. CultMoviez! - All Rights Reserved
Template Created by Creating Website Published by Mas Template
Proudly powered by Blogger