Brutti, sporchi e cattivi: Feos, Sucio y Malos (1976) - CultMoviez!
Latest Movie :

Brutti, sporchi e cattivi: Feos, Sucio y Malos (1976)

Imdb
Filmaffinity
SINOPSIS / El viejo Giacinto vive en los arrabales de una gran ciudad italiana junto a su esposa, numerosos hijos, nueras, nietos... En total casi veinte personas en una misma chabola. Casi todos los miembros de la gran familia son extremadamente egoístas, y sólo quieren el dinero que guarda afanosamente el padre de familia, un hombre huraño y tan miserable como los demás. Todos tratan de ganarse la vida, aunque algunos necesitan parte del dinero del padre para subsistir.
Ettore Scola creó en 1976 lo que supone su máxima obra. Brutti, Sporchi e cattivi… es una historia tragicómica donde nos podemos divertir tanto como indignarnos. ¿Es un llamado a la concientización? Puede ser. Porque no olvidemos que la pobreza es un mal que aqueja a más de media humanidad, y por más que lo ocultemos, por más que la glorifiquemos no olvidemos que no hay nada de digno en esta forma de vida; ahí sale Brutti, Sporchi… como fiel reflejo de los males que aqueja la pobreza: parricidios, femicidios, infidelidad, promiscuidad, maltrato infantil, delincuencia… Estos son los Feos, Sucios y Malos, los parias, los dueños de la miseria, los verdaderos olvidados de la sociedad.
Premiada en los Cannes al mejor director, con un papel interpretado de forma genial por el viejito Nino Manfredi y una música sobrecogedora, convierte esta cinta en una visión obligatoria para aquellos cinéfilos que quieran entender la “comedia a la italiana”. (DVDrip, Datos del Rip, Poster, Caps y Trailer en "Mas Informacion")





DATOS DEL RIP

Format: AVI
Format/Info: Audio Video Interleave
File size: 800 MiB
Duration: 1h 54mn
Overall bit rate: 979 Kbps
Writing application: VirtualDubMod 1.5.4.1 (build 2178/release)
Writing library: VirtualDubMod build 2178/release

Video
ID: 0
Format: MPEG-4 Visual
Format profile: Advanced Simple@L5
Format settings, BVOP: Yes
Format settings, QPel: No
Format settings, GMC: No warppoints
Format settings, Matrix: Custom
Codec ID: XVID
Codec ID/Hint: XviD
Duration: 1h 54mn
Bit rate: 875 Kbps
Width: 544 pixels
Height: 304 pixels
Display aspect ratio: 16:9
Frame rate: 29.970 fps
Color space: YUV
Chroma subsampling: 4:2:0
Bit depth: 8 bits
Scan type: Progressive
Bits/(Pixel*Frame): 0.176
Stream size: 714 MiB (89%)
Writing library: XviD 1.1.2 (UTC 2006-11-01)

Audio
ID: 1
Format: MPEG Audio
Format version: Version 1
Format profile: Layer 3
Mode: Joint stereo
Codec ID: 55
Codec ID/Hint: MP3
Duration: 1h 54mn
Bit rate mode: Constant
Bit rate: 96.0 Kbps
Channel(s): 2 channels
Sampling rate: 32.0 KHz
Stream size: 78.4 MiB (10%)
Alignment: Aligned on interleaves
Interleave, duration: 67 ms (2.00 video frames)
Interleave, preload duration: 504 ms
Writing library: LAME3.97
Encoding settings: -m j -V 4 -q 2 -lowpass 15.1 -b 96
Language: Italian

POSTERS






CAPS

















































































TRAILER

Share this article :

+ comentarios + 5 comentarios

Anónimo
18 de julio de 2010, 11:55

¡¡¡¡ Los Olvidados Italianos !!!!

Anónimo
11 de enero de 2012, 19:55

me gustaria saver como le pongo los subtitulos a la pelicula de brutti,sporchi e cattivi, e descargado la peli y los subtitulos ,no se como ponerlos .E remplazado y e provado en el reproductor pero no consigo sacarlos,si alguien puede ayudarme k conteste porfavor.
Porcierto muy buena la pelicula y aun mejor la web ;)

12 de enero de 2012, 0:28

Debes renombrar ambos archivos. Poneles el mismo nombre y el reproductor te los tomara.

13 de abril de 2012, 18:10

Cuando vi de adolescente esta pelicula me asusto y estremecio brutalmente la decadencia humana ,ahora que la veo me parece brutalmente genial esta pelicula. Gracias GabyLocura , danos mas de tu locura con estas joyas.

13 de abril de 2012, 21:11

Así sera

Publicar un comentario en la entrada



Ayúdanos comentando las películas, puedes publicar subtítulos mejor sincronizados y en diferentes idiomas, mirrors en mediafire.com, Jumbofiles.com, bayfiles.com, glumbouploads.com, rapidshare.com, hotfile.com, nedload.com, cramit.in, megashares.com, letitbit.net, vip-file.com, x7.to, gigasize.com, filezzz.com, filebox.com, depositfiles.com, yourfilesender.com, bitshare.com, o cualquier otro servidor que uses, dvdfull, dvdr5, dvdrip, 720p, 1080p, archivos torrent, emule, soundtrack, banda sonora, OST. 



Evita poner contraseñas o nombres con url de otra web que no sea esta, evita las palabras ofensivas, evita hacer spam, recuerda que en este sitio se comparte solo por placer, así que cualquier aporte es bienvenido.



Para más información

Escríbenos a cinemadeculto@gmail.com

 
Support : Creating Website | Johny Template | Mas Template
Copyright © 2011. CultMoviez! - All Rights Reserved
Template Created by Creating Website Published by Mas Template
Proudly powered by Blogger