The Mindscape of Alan Moore (2003) - CultMoviez!
Latest Movie :

The Mindscape of Alan Moore (2003)


Imdb
Filmaffinity
RottenTomatoes

Alan Moore es un escritor británico, conocido mayormente por su trabajo en comics, aunque también ha publicado una novela (Voice of the Fire), y ha extendido su curiosidad creativa también a los campos de la música, la poesía, e inclusive la magia y el chamanismo. En su rol principal de escritor de historietas, Moore ha escrito algunas de las obras más influyentes de la historia del género, entre ellas V for Vendetta, Watchmen, The League of Extraordinary Gentlemen y Batman: The Killing Joke, entre muchas otras que influenciaron a Neil Gaiman, Brian Azzarello, Mark Millar o Grant Morrison. Generalmente con historias de estructuras complejas y casi siempre de contenido adulto (inclusive la de Batman), es sin duda una de las fuerzas creativas más importantes y controversiales de un género considerado popular y erróneamente como "para chicos".
Alan Moore es un tipo muy groso, quien se autodeclaro anarquista, lo cual se nota claramente en V for Vendetta, obra llevada al cine con un resultado distinto al reflejado en la historieta en cual queda afuera de la misma su condición principal de manifiesto anarquista y se convirtió en tan solo una producción rentable.
Es más, Moore actualmente tiene una visión de desaprobación de cualquier adaptación al cine de alguna de sus obras después de lo que fue The League of Extraordinary Gentlemen (La Liga Extraordinaria en Latinoamérica) que el mismo considero como un disparate total que lo único que comparten es el mismo título. Lamentablemente los derechos de las más grandes obras de Moore pertenecen a las editoriales, por lo cual no hubo nada que pudiese hacer don Alan para detener su realización, aunque las degrada en cada oportunidad que se le presenta. Y si, su nombre no figura en ellas.
En el siguiente documental realizado en 2003, el escritor y auto nombrado mago (que no es lo que se suele asociar a esta palabra, él lo define muy bien) Alan Moore, nos habla de las diferentes etapas de su vida, su niñez, sus comics, de la vida, la muerte, las conspiraciones, la magia, el concepto de idea-tiempo e incluso de los campos morfo genéticos, entre otras cosas. Gracias a Sebastián Negritto por la subida. (DVDRIP, DATOS DEL RIP, POSTERS, CAPS y TRAILER en Leer Más)

DATOS DEL RIP

Format: AVI
Format/Info: Audio Video Interleave
File size: 745 MiB
Duration: 1h 17mn
Overall bit rate: 1 339 Kbps

Video
ID: 0
Format: MPEG-4 Visual
Format profile: Simple@L3
Format settings, BVOP: No
Format settings, QPel: No
Format settings, GMC: No warppoints
Format settings, Matrix: Default (H.263)
Codec ID: XVID
Codec ID/Hint: XviD
Duration: 1h 17mn
Bit rate: 1 199 Kbps
Width: 640 pixels
Height: 360 pixels
Display aspect ratio: 16:9
Frame rate: 25.000 fps
Color space: YUV
Chroma subsampling: 4:2:0
Bit depth: 8 bits
Scan type: Progressive
Bits/(Pixel*Frame): 0.208
Stream size: 667 MiB (90%)
Writing library: Magic0432

Audio
ID: 1
Format: MPEG Audio
Format version: Version 1
Format profile: Layer 3
Mode: Joint stereo
Codec ID: 55
Codec ID/Hint: MP3
Duration: 1h 17mn
Bit rate mode: Constant
Bit rate: 128 Kbps
Channel(s): 2 channels
Sampling rate: 44.1 KHz
Stream size: 71.2 MiB (10%)
Alignment: Aligned on interleaves
Interleave, duration: 26 ms (0.65 video frame)
POSTERS



























CAPS










TRAILER

Share this article :

+ comentarios + 14 comentarios

Anónimo
2 de agosto de 2010, 21:54

Tremendas palabras, da gusto escucharlo.
Muchas gracias-
mrp

3 de agosto de 2010, 6:32

Un tipo muy copado.

Los créditos son para el Negrito Sebastián que la subió.

Saludos

Puchitoloco
3 de agosto de 2010, 18:56

Los Subtitulos en ingles estan pegados al video ?
No se los Puedo Sacar !

4 de agosto de 2010, 0:55

La verdad que no entiendo porque se ripeo una película de habla inglesa con los subtítulos en inglés... Bah, aunque recuerdo que yo a veces necesitaba ponerle subtítulos en castellano a algunas películas chilenas porque no entiendo cuando hablan muy rapido, jaja.
Igual puchito, yo al documental lo vi aún con esos forros subtítulos incrustrados y no tuve ningun problema.

7 de agosto de 2010, 12:49

lo descargaré, se ve muy interesante

Gracias y saludos, chingón blog, de lo mejor en la red.

peace and love¡¡

13 de agosto de 2010, 22:26

hola chicos ,me volo la cabeza este documental t tbien algun porreli por ahi ,pero para prestarle toda la atencion el tipo esta muy bien plantado ,como diria mi profesor de dibujo,muchas gracias,yo lo que tengo para compartir es fitzcarraldo,de Herzog pero esta subtitulada ,si no jode avisen y la subo y les paso el link .

15 de agosto de 2010, 5:33

Cualquier aporte es bienvenido en el correo del blog: cinemadeculto@gmail.com

6 de enero de 2011, 7:08

hola chicos ,me volo la cabeza este documental t tbien algun porreli por ahi ,pero para prestarle toda la atencion el tipo esta muy bien plantado ,como diria mi profesor de dibujo,muchas gracias,yo lo que tengo para compartir es fitzcarraldo,de Herzog pero esta subtitulada ,si no jode avisen y la subo y les paso el link .

Anónimo
15 de mayo de 2012, 12:12

I have a problem with part 2. It seems that the file is empty. Can you please check? Thank you

15 de mayo de 2012, 13:44

How about now?

Anónimo
16 de mayo de 2012, 3:03

Part 2 fixed! Thank you for this and for sharing all these great films.

Anónimo
18 de mayo de 2012, 8:37

Descargando, gracias por compartir!!!!!
bufonrebp

27 de mayo de 2012, 21:31

Link resubido

31 de mayo de 2012, 8:13

Hola Gaby, primero que nada excelente este aporte, conocía la existencia de este trabajo. Segundo, bajé la peli, pero el archivo no abre. Tengo los codecs actualizados y todo en orden, probé con varios reproductores y nada. Fijate que en una de esas lo podés solucionar ya que sería una pena no poder conocer a este fantástico personaje. Desde ya muchas gracias!!!

Publicar un comentario en la entrada



Ayúdanos comentando las películas, puedes publicar subtítulos mejor sincronizados y en diferentes idiomas, mirrors en mediafire.com, Jumbofiles.com, bayfiles.com, glumbouploads.com, rapidshare.com, hotfile.com, nedload.com, cramit.in, megashares.com, letitbit.net, vip-file.com, x7.to, gigasize.com, filezzz.com, filebox.com, depositfiles.com, yourfilesender.com, bitshare.com, o cualquier otro servidor que uses, dvdfull, dvdr5, dvdrip, 720p, 1080p, archivos torrent, emule, soundtrack, banda sonora, OST. 



Evita poner contraseñas o nombres con url de otra web que no sea esta, evita las palabras ofensivas, evita hacer spam, recuerda que en este sitio se comparte solo por placer, así que cualquier aporte es bienvenido.



Para más información

Escríbenos a cinemadeculto@gmail.com

 
Support : Creating Website | Johny Template | Mas Template
Copyright © 2011. CultMoviez! - All Rights Reserved
Template Created by Creating Website Published by Mas Template
Proudly powered by Blogger