A Woman under the Influence (1974) - CultMoviez!
Latest Movie :

A Woman under the Influence (1974)


Imdb
Filmaffinity
RottenTomatoes

1974: 2 nominaciones al Oscar: Mejor actriz (Gena Rowlands), director
SINOPSIS/Nick (Peter Falk), un hombre de la construcción, tiene que cargar con la responsabilidad de cuidar a su mujer (Gena Rowlands) que padece inestabilidad emocional. Continuamente lucha por mantener la normalidad ante su extraño comportamiento, hasta que éste afecta sus hijos y será necesario que tome medidas.

Protagonizada por Peter Falk y Gena Rowlands (en dos de las actuaciones de pantalla más desgarradoras de la década de 1970) como una pareja casada profundamente enamorada pero incapaz de expresar ese amor en términos que el otro puede entender, la película es un retrato sin concesiones de los disturbios interiores.
La mayor característica del cine de Cassavetes es la total libertad de interpretación que le cede a su reparto; si bien detrás de la película se esconde un sólido guión, la improvisación se apodera de las escenas. Lo que dio excelentes resultados en muchas de sus cintas.
Una de las películas de referencia del cine independiente norteamericano - un documento heroico de un director que sufrió del boicot de la industria hollywoodense quien se negó a distribuir y exhibir A Women Under the Influence. Incluso en alguna de sus obras (Vease Shadows) , necesitó hacer una baquita entre amigos y familiares para la financiazión. Gloria al cine independiente! (DVDrip, Datos del Rip, Poster, Caps y Trailer en "Mas Informacion") .




DESCARGAR CD 01

SUBTITULOS
DESCARGAR CD 02
SUBTÍTULOS


DATOS DEL RIP

Format: AVI
Format/Info: Audio Video Interleave
Format settings: rec
File size: 700 MiB
Duration: 1h 14mn
Overall bit rate: 1 312 Kbps

Video
ID: 0
Format: MPEG-4 Visual
Format profile: Simple@L3
Format settings, BVOP: Yes
Format settings, QPel: No
Format settings, GMC: No warppoints
Format settings, Matrix: Default (MPEG)
Muxing mode: Packed bitstream
Codec ID: XVID
Codec ID/Hint: XviD
Duration: 1h 14mn
Bit rate: 1 112 Kbps
Width: 608 pixels
Height: 320 pixels
Display aspect ratio: 1.900
Frame rate: 23.976 fps
Color space: YUV
Chroma subsampling: 4:2:0
Bit depth: 8 bits
Scan type: Progressive
Bits/(Pixel*Frame): 0.238
Stream size: 594 MiB (85%)
Writing library: XviD 1.0.0 (UTC 2004-05-09)

Audio
ID: 1
Format: AC-3
Format/Info: Audio Coding 3
Mode extension: CM (complete main)
Codec ID: 2000
Duration: 1h 14mn
Bit rate mode: Constant
Bit rate: 192 Kbps
Channel(s): 1 channel
Channel positions: Front: C
Sampling rate: 48.0 KHz
Stream size: 102 MiB (15%)
Alignment: Aligned on interleaves
Interleave, duration: 64 ms (1.53 video frames)


POSTERS






CAPS































































TRAILER

Share this article :

+ comentarios + 14 comentarios

11 de julio de 2010, 19:01

Que gran aporte, esta junto a Shadows de mis preferidas de Cassavetes. Un saludo

11 de julio de 2010, 23:50

Shadows no tiene ningun desperdicio, pero esta creo que me gusto un poquito más. Saludos y gracias por el comentario

6 de enero de 2011, 7:08

Que gran aporte, esta junto a Shadows de mis preferidas de Cassavetes. Un saludo

6 de enero de 2011, 7:08

Shadows no tiene ningun desperdicio, pero esta creo que me gusto un poquito más. Saludos y gracias por el comentario

Anónimo
29 de mayo de 2012, 21:11

yo era una fiel seguidora de esta pag...desde que empezaste a subir las peliculas con este servidor no me funca nada.(y el jdownloader ya me lo baje) y la verdad que anda como el culo y me hace perder mas tiempo.con otros servidores me he bajado peliculas en 20 min.me da bronca basicamente porque ya no puedo mirar mis peliculitas,y me voy a tener que conformar con la pedorreada de cuevana..etc :(

29 de mayo de 2012, 22:27

Yo descargo todo con jdwonloader, incluso desde este hosting, y todo me va a la velocidad máxima.

Te vamos a extrañar :(

PD: Sino, podrías intentar con el internet download manager.
PD2: Cada tanto tienen pelis buenas en cuevana

30 de mayo de 2012, 9:00

Yo descargo perfecto con jdownloader todo el contenido de la pagina...y es una de las mejores paginas para descargar CINE (si, en mayúscula)...ahora bien, pregunta: estan resubiendo pelis que ya en su momento habían subido....cuando suben nuevas??????????
gracias por este tremendo aporte

30 de mayo de 2012, 15:01

Y... Veremos, es casi prioridad las resubidas. Pero, cada tanto aparece alguna nueva...

Amanda
30 de mayo de 2012, 16:15

Que alguien me explique muy detenidamente cómo me lo bajo (nada de: con el JDownloader, nena!). Nota: ya tengo el programa descargado. Ahora necesito explicaciones jeje

30 de mayo de 2012, 18:47

Fácil. Abrí el programa (quizás te salga un mensaje diciendo que hay actualizaciones) y luego copias el link de la peli. Ahí, automáticamente, te lo toma el jdownloader. Cuando termine de leerlo, se te pone en color verde (cuando está en rojo, normalmente es porque está caído) y pones play. Y ahí a esperar solamente (quizás cuando mandes play te salte un mensaje diciendo que ese hosting es nuevo o algo por el estilo, eso es porque lo acabas de instalar, pones aceptar y listo) Como este hosting en particular tiene captchas, debes poner los números. Pero hostings como mediafire, rapidshare, etc, es copiar links y poner play solamente.

Por si acaso, acá tenés un tutorial:

http://es.jdownloader.com/manuals/manual-para-descargar-ficheros---jdownloadercom.html

Saludos (eso del tutorial sobre ajustes y demás, es más complementario)

Amanda
31 de mayo de 2012, 14:40

Pues seré tonta pero a mí me sale "JDownloader has not found anything on
http://180upload.com/k2itezn38f6k"
:(

31 de mayo de 2012, 15:14

Nada Amanda revisando y baja normal fíjate que seguro te falto aceptar los tos

10 de julio de 2012, 5:35

el cd 2 ya no funciona

10 de julio de 2012, 5:35

el cd 2 ya no funciona

Publicar un comentario en la entrada



Ayúdanos comentando las películas, puedes publicar subtítulos mejor sincronizados y en diferentes idiomas, mirrors en mediafire.com, Jumbofiles.com, bayfiles.com, glumbouploads.com, rapidshare.com, hotfile.com, nedload.com, cramit.in, megashares.com, letitbit.net, vip-file.com, x7.to, gigasize.com, filezzz.com, filebox.com, depositfiles.com, yourfilesender.com, bitshare.com, o cualquier otro servidor que uses, dvdfull, dvdr5, dvdrip, 720p, 1080p, archivos torrent, emule, soundtrack, banda sonora, OST. 



Evita poner contraseñas o nombres con url de otra web que no sea esta, evita las palabras ofensivas, evita hacer spam, recuerda que en este sitio se comparte solo por placer, así que cualquier aporte es bienvenido.



Para más información

Escríbenos a cinemadeculto@gmail.com

 
Support : Creating Website | Johny Template | Mas Template
Copyright © 2011. CultMoviez! - All Rights Reserved
Template Created by Creating Website Published by Mas Template
Proudly powered by Blogger