Arizona Dream (1992) - CultMoviez!
Latest Movie :

Arizona Dream (1992)


Imdb
Filmaffinity
RottenTomatoes

¿Qué es esa transición de niño a hombre si no un infierno? Como el de estar entre dos mujeres: la que personifica tus metas, tu destino final hacia la madurez, y aquella que vas dejando atrás, ese eterno anclaje a tu juventud. Arizona Dream nos muestra ese paso casi ignorado, esa lucha por revelarse contra la imposición familiar y a la vez su inevitable aceptación, la innecesaria rapidez con la que nos empeñamos en crecer, como un salto al vacío, con sus decisiones erradas y sus intentos por deshacer el camino equivocado, por alcanzar un sueño.
Y ésta es sólo parte de la magia de esta obra de Kusturica, con todo su simbolismo, su humor, su absurdismo justificado en la representación de un proceso tan complicado como el de madurar.
Y como no, mención especial merece su excelente banda sonora, una vez más de manos de su habitual colaborador Goran Bregović, y con la participación además de Iggy Pop. Comentada y subida by Ismael, todos los créditos para el señor. (DVDRIP, DATOS DEL RIP, POSTERS, CAPS y TRAILER en Más Información)






DATOS DEL RIP

Format: AVI
Format/Info: Audio Video Interleave
File size: 700 MiB
Duration: 2h 14mn
Overall bit rate: 727 Kbps
Writing application: VirtualDubMod 1.5.4.1 (build 2178/release)
Writing library: VirtualDubMod build 2178/release

Video
ID: 0
Format: MPEG-4 Visual
Format profile: Advanced Simple@L5
Format settings, BVOP: Yes
Format settings, QPel: No
Format settings, GMC: No warppoints
Format settings, Matrix: Custom
Codec ID: XVID
Codec ID/Hint: XviD
Duration: 2h 14mn
Bit rate: 598 Kbps
Width: 560 pixels
Height: 304 pixels
Display aspect ratio: 16:9
Frame rate: 25.000 fps
Color space: YUV
Chroma subsampling: 4:2:0
Bit depth: 8 bits
Scan type: Progressive
Bits/(Pixel*Frame): 0.141
Stream size: 576 MiB (82%)
Writing library: XviD 1.2.1 (UTC 2008-12-04)

Audio
ID: 1
Format: MPEG Audio
Format version: Version 1
Format profile: Layer 3
Mode: Joint stereo
Mode extension: MS Stereo
Codec ID: 55
Codec ID/Hint: MP3
Duration: 2h 14mn
Bit rate mode: Variable
Bit rate: 116 Kbps
Nominal bit rate: 128 Kbps
Channel(s): 2 channels
Sampling rate: 48.0 KHz
Stream size: 112 MiB (16%)
Alignment: Aligned on interleaves
Interleave, duration: 24 ms (0.60 video frame)
Interleave, preload duration: 456 ms
Writing library: LAME3.98r
Encoding settings: -m j -V 4 -q 2 -lowpass 17 --abr 128


POSTERS



CAPS


TRAILER

Share this article :

+ comentarios + 9 comentarios

salvatore
3 de agosto de 2010, 18:43

eeee ¡¡¡ que buena rola, podrian subir fargo colegas, hay un error al descargarla.



tanta gente visita este palacio y no comenta.
saludos de vaparaiso.

3 de agosto de 2010, 21:44

Este es uno de los mejores sitios en la net pa descargar o ver buen cine.FELICITACIONES al combo(grupo) que maneja esta pagina...sigan asi, consiguiendo LO MEJOR del septimo arte
Colombiano en Australia

4 de agosto de 2010, 0:52

Es verdad, el tiempo que se dedica al blog (y que dedicaron watesam y dantino) en todo este año es incalculable. Comentar les toma tan solo unos minutos. Aunque sea un gracias, o alguna opinión sobre la película

Ey, il tuo salvatore buone intenzioni sono agradeze.

salvatore
5 de agosto de 2010, 18:42

el subtitulo esta al ingles parece cumpas, no al español.

eso... con muchas ansias de verla.

saludos reyes

6 de agosto de 2010, 12:22

Por el momento, estos subtítulos encajan:

http://www.subdivx.com/X6XMTYwMDQ8X-arizona-dream-1993.html

Luego con tiempo los resubo. Que la disfrutes

16 de agosto de 2010, 23:27

che a mi no me andan esos subtitulos de esa pagina, a mi por lo menos.
exelente blog, exelentes gustos, exelentes peliculas. me gustaria comentar mas seguido pero soy un boludo que se cuelga.
gracias

25 de septiembre de 2010, 12:42

gracias!

6 de enero de 2011, 7:08

gracias!

Anónimo
10 de abril de 2012, 7:55

gracias por su pagina

Publicar un comentario en la entrada



Ayúdanos comentando las películas, puedes publicar subtítulos mejor sincronizados y en diferentes idiomas, mirrors en mediafire.com, Jumbofiles.com, bayfiles.com, glumbouploads.com, rapidshare.com, hotfile.com, nedload.com, cramit.in, megashares.com, letitbit.net, vip-file.com, x7.to, gigasize.com, filezzz.com, filebox.com, depositfiles.com, yourfilesender.com, bitshare.com, o cualquier otro servidor que uses, dvdfull, dvdr5, dvdrip, 720p, 1080p, archivos torrent, emule, soundtrack, banda sonora, OST. 



Evita poner contraseñas o nombres con url de otra web que no sea esta, evita las palabras ofensivas, evita hacer spam, recuerda que en este sitio se comparte solo por placer, así que cualquier aporte es bienvenido.



Para más información

Escríbenos a cinemadeculto@gmail.com

 
Support : Creating Website | Johny Template | Mas Template
Copyright © 2011. CultMoviez! - All Rights Reserved
Template Created by Creating Website Published by Mas Template
Proudly powered by Blogger