Det sjunde inseglet (1957) - CultMoviez!
Latest Movie :

Det sjunde inseglet (1957)


Imdb
Filmaffinity
RottenTomatoes

¿ Hacia dónde vamos cuando morimos ?, ¿ Qué hay más allá de la muerte ?. Estas preguntas atormentan la mente del caballero Antonius Block ( Max von Sydow), quién, a la vuelta de las cruzadas, se encuentra con una Suecia asolada por la peste, y la Muerte que espera por él... Con la intención de alargar su tiempo de vida y encontrar un sentido a lo que ha sido su existencia, el joven caballero reta a la Muerte a jugar una partida de ajedrez: si gana, ésta lo dejará irse; pero si pierde, lo llevará consigo...
¿Qué decir sobre esta monumental película? Todo el cine de Bergman es un universo de lo más complicado donde el director sueco plantea cuestiones y reflexiones que no solo le afectan a él como ser humano sino que son temas universales que todas las personas nos hemos planteado o nos plantearemos en algún momento de nuestras vidas; fue el primer realizador en llevar cuestiones metafísicas –la muerte, la religión y el existencialismo- donde logró inventar un lenguaje cinematográfico que se adecuaba exactamente a lo que él quería decir  y que nunca se había hecho antes. Era como un minero excavando en busca de la pureza.
“Lo imposible es demasiado atractivo”- dijo una vez el sueco. Y es el Séptimo Sello quizás su obra más emblemática, que si rodó en tan solo treinta y cinco días y tuvo las excelentes actuaciones por parte de Beng Ekerot como la Muerte y de Max von Sydow como el gran caballero.
En lo personal, The Seventh Seal produjo en mi una sensación indescriptible y mi visión sobre el cine cambio rotundamente (y por qué no, de la vida también) y podría incluirla fácilmente entre las mejores películas jamás hechas, junto con Cries and Whispers, Fanny y Alexander o Vargtimmen, esta última disponible en el blog.
“Quiero ser molesto, un incordio, difícil de encasillar” – Ingmar Bergman (1918 – 2007)

(DVDRIP DUAL SUECO-INGLÉS, DATOS DEL RIP, POSTERS, CAPS y TRAILER en Más Información)








DATOS DEL RIP

Format: AVI
Format/Info: Audio Video Interleave
File size: 700 MiB
Duration: 1h 37mn
Overall bit rate: 1 007 Kbps
Writing application: VirtualDubMod 1.5.4.1 (build 2178/release)
Writing library: VirtualDubMod build 2178/release

Video
ID: 0
Format: MPEG-4 Visual
Format profile: Simple@L3
Format settings, BVOP: Yes
Format settings, QPel: No
Format settings, GMC: No warppoints
Format settings, Matrix: Default (H.263)
Muxing mode: Packed bitstream
Codec ID: XVID
Codec ID/Hint: XviD
Duration: 1h 37mn
Bit rate: 864 Kbps
Width: 640 pixels
Height: 480 pixels
Display aspect ratio: 4:3
Frame rate: 23.976 fps
Color space: YUV
Chroma subsampling: 4:2:0
Bit depth: 8 bits
Scan type: Progressive
Bits/(Pixel*Frame): 0.117
Stream size: 600 MiB (86%)
Writing library: XviD 1.1.0 Beta2 (UTC 2005-04-04)

Audio #1
ID: 1
Format: MPEG Audio
Format version: Version 1
Format profile: Layer 3
Codec ID: 55
Codec ID/Hint: MP3
Duration: 1h 37mn
Bit rate mode: Variable
Bit rate: 64.0 Kbps
Channel(s): 1 channel
Sampling rate: 48.0 KHz
Stream size: 42.4 MiB (6%)
Alignment: Aligned on interleaves
Interleave, duration: 24 ms (0.58 video frame)
Interleave, preload duration: 302 ms
Writing library: LAME3.96r
Encoding settings: -m m -V 4 -q 2 -lowpass 16.5 --abr 64
Language: Swedish

Audio #2
ID: 2
Format: MPEG Audio
Format version: Version 1
Format profile: Layer 3
Codec ID: 55
Codec ID/Hint: MP3
Duration: 1h 37mn
Bit rate mode: Variable
Bit rate: 64.0 Kbps
Channel(s): 1 channel
Sampling rate: 48.0 KHz
Stream size: 42.5 MiB (6%)
Alignment: Aligned on interleaves
Interleave, duration: 24 ms (0.58 video frame)
Interleave, preload duration: 537 ms
Writing library: LAME3.96r
Encoding settings : -m m -V 4 -q 2 -lowpass 16.5 --abr 64
Language: English


POSTERS



CAPS

TRAILER


Share this article :

+ comentarios + 3 comentarios

24 de agosto de 2010, 6:55

Una de las mejores peliculas de la historia
Desoladora y tragica
Bergman para mi no ha muerto
Intentare subir "Persona" que es otra obra maestra del gran sueco.
Muchas gracias por el aporte ^^

Anónimo
31 de marzo de 2012, 18:51

el link esta caido!!! o mejor dicho , esta en manos del FBI....please acomodenlo tengo tremendas ganas de ver esta peli.
GRacias!
Jose.

Anónimo
1 de abril de 2012, 15:49

bajando! gracias!

Publicar un comentario en la entrada



Ayúdanos comentando las películas, puedes publicar subtítulos mejor sincronizados y en diferentes idiomas, mirrors en mediafire.com, Jumbofiles.com, bayfiles.com, glumbouploads.com, rapidshare.com, hotfile.com, nedload.com, cramit.in, megashares.com, letitbit.net, vip-file.com, x7.to, gigasize.com, filezzz.com, filebox.com, depositfiles.com, yourfilesender.com, bitshare.com, o cualquier otro servidor que uses, dvdfull, dvdr5, dvdrip, 720p, 1080p, archivos torrent, emule, soundtrack, banda sonora, OST. 



Evita poner contraseñas o nombres con url de otra web que no sea esta, evita las palabras ofensivas, evita hacer spam, recuerda que en este sitio se comparte solo por placer, así que cualquier aporte es bienvenido.



Para más información

Escríbenos a cinemadeculto@gmail.com

 
Support : Creating Website | Johny Template | Mas Template
Copyright © 2011. CultMoviez! - All Rights Reserved
Template Created by Creating Website Published by Mas Template
Proudly powered by Blogger