Gekitotsu! Satsujin ken (1974) - CultMoviez!
Latest Movie :

Gekitotsu! Satsujin ken (1974)

IMDB
Rotten Tomatoes
The Deuce 

Siempre que veo la costa al inicio de una cinta, y se muestra el logo de Toei, se que hermosas cosas pasarán, verdaderas obras maestras o si no al menos algo disfrutable. Tal es el caso de este metraje, el primer filme en obtener una clasificación "X" por violencia según IMDB. Primero de la trilogía de street fighter protagonizada por el anti-bruce lee, sonny chiba. Antes de todos esos destestables y carentes de alma refritos, existía esta joya, una película que aún vive en los corazones de muchos, por su magia, su más grande característica. Va más allá de una cinta de explotación odinaria, para ser un filme solido y bien dirigido (Shigehiro Ozawa), con un excelente guión por parte de Kôji Takada y Motohiro Torii, y adorables coreografías, hecho para vivir décadas, todo un clásico de culto

Terry Tsurugi es un tipo duro, maestro del karate, un mercenario y asesino a sueldo, la mafia y los yakuza le intentan contratar cuando un importante magnate de los negocios muere y todo sus billones van a parar en las  manos de su hija, ellos la quieren secuestrar para hacerse con el dinero. Cuando se reusan a pagar el exorbitante precio que Terry solicita, lo intenta matar, pero el se escapa y pronto ofrecerá sus servicios para proteger a la muchacha, la tarea es complicada pero el asumirá las consecuencias.

Veremos huesos quebrados, cráneos rotos (incluso uno con una toma de rayos X, una escena hermosa!), gargantas arrancadas de cuajo, testículos extraídos, dientes sacados a punta de golpe y sangre esparcida por todo lado. Para cualquiera que diga amar el cine Grindhouse, es imposible que no le guste esta película!, además de la trama ya mencionada tendremos una historia secundaria, y una para nada sobrante dosis de drama.

_ Escuchame hijo, no confíes en nadie, nadie mas tu mismo, mejora tus habilidades hijo, haz duro tu cuerpo!, hazte el hombre más fuerte de la tierra, que no haya nadie como tu, ¡no dejes a nadie vencerte!. (DVDRIP, DATOS DEL RIP, POSTERS, CAPS y TRAILER en "Más Información")





DATOS DEL RIP:

General
Format : AVI
Format/Info  : Audio Video Interleave
File size  : 555 MiB
Duration  : 1h 27mn
Overall bit rate  : 887 Kbps
Writing application : Lavf51.12.1

Video
ID : 0
Format : MPEG-4 Visual
Format profile : Simple@L1
Format settings, BVOP : No
Format settings, QPel   : No
Format settings, GMC : No warppoints
Format settings, Matrix   : Default (H.263)
Codec ID  : DIVX
Codec ID/Info : Project Mayo
Codec ID/Hint: DivX 4
Duration : 1h 27mn
Bit rate  : 717 Kbps
Width : 352 pixels
Height  : 198 pixels
Display aspect ratio : 16:9
Frame rate: 25.000 fps
Color space : YUV
Chroma subsampling  : 4:2:0
Bit depth : 8 bits
Scan type: Progressive
Bits/(Pixel*Frame): 0.411
Stream size   : 448 MiB (81%)
Writing library   : Lavc51.40.4

Audio
ID : 1
Format  : MPEG Audio
Format version  : Version 1
Format profile : Layer 3
Mode : Joint stereo
Mode extension  : MS Stereo
Codec ID: 55
Codec ID/Hint : MP3
Duration   : 1h 27mn
Bit rate mode: Constant
Bit rate  : 160 Kbps
Channel(s)  : 2 channels
Sampling rate : 32.0 KHz
Stream size : 100 MiB (18%)
Alignment  : Aligned on interleaves
Interleave, duration  : 36 ms (0.90 video frame)
Writing library  : LAME3.97ªª0*€K0 ˆ 1‘


POSTERS:

CAPS:


 


TRAILER:
 
Share this article :

+ comentarios + 7 comentarios

25 de agosto de 2010, 16:35

Bravo! Ahí la dejo bajando y la miro al llegar de la escuela.

Siempre me produjo lo mismo el logo de Toei. Primero fue con las película de DBZ de joven, luego Battle Royale y luego todaaaas las demás japos que vi.

26 de agosto de 2010, 1:19

Sonny Chiba ES LO MÁXIMO

Anónimo
30 de abril de 2012, 13:34

habra posibilidad de que la resuban
de antemano gracias
hectorm

Anónimo
31 de mayo de 2012, 9:00

podeis subir las peliculas a mediafire, que funciona mejor?cada vez que abro jumbofiles o 180upload me sale algún problema o virus...
gracias!

31 de mayo de 2012, 12:18

No lo haremos. Virus? :S

De nada!!

Gegetto
1 de junio de 2012, 12:48

Creo que no entiendo como descargar la peli desde este sitio.

Hago clic para crear el enlace de descarga pero entonces me trae a una video divx y nada pasa.

No sé si hago algo malo o si es normal.

Alguien puede ayudarme?

Gracias y agradezco este sitio para hacerme proveer peliculas muy raras (como esta)!

1 de junio de 2012, 15:22

Con Jdownloader.

http://www.cultmoviez.net/2009/12/ayudas-pedidos-aportes.html

Publicar un comentario en la entrada



Ayúdanos comentando las películas, puedes publicar subtítulos mejor sincronizados y en diferentes idiomas, mirrors en mediafire.com, Jumbofiles.com, bayfiles.com, glumbouploads.com, rapidshare.com, hotfile.com, nedload.com, cramit.in, megashares.com, letitbit.net, vip-file.com, x7.to, gigasize.com, filezzz.com, filebox.com, depositfiles.com, yourfilesender.com, bitshare.com, o cualquier otro servidor que uses, dvdfull, dvdr5, dvdrip, 720p, 1080p, archivos torrent, emule, soundtrack, banda sonora, OST. 



Evita poner contraseñas o nombres con url de otra web que no sea esta, evita las palabras ofensivas, evita hacer spam, recuerda que en este sitio se comparte solo por placer, así que cualquier aporte es bienvenido.



Para más información

Escríbenos a cinemadeculto@gmail.com

 
Support : Creating Website | Johny Template | Mas Template
Copyright © 2011. CultMoviez! - All Rights Reserved
Template Created by Creating Website Published by Mas Template
Proudly powered by Blogger