Il grande silenzio (1968) - CultMoviez!
Latest Movie :

Il grande silenzio (1968)

Conocido como el spaguetti western en la nieve, esta película es considerada una de las mayores obras de arte del segundo Sergio, Corbucci. En este filme en particular no veremos muchos de los elementos del subgénero, tales como el humor que suelen manejar a veces. Al contrario, En esta producción italo-francesa, tenemos un soundtrack por parte de Morricone diferente a lo acostumbrado y nos acompañará un aura dramática desde el principio hasta el final.
Fue grabada en Cortina d'Ampezzo, en la región del Véneto,al norte de Italia, pero se nos dice que estamos en Utah,durante la gran nevada de 1899,en los escenarios fríos e inhóspitos de un pueblillo llamado snow hill. Se está a punto de aprobar una amnistía que librará de sus crimenes a varios de los bandidos que debido a la nieve, el hambre y la pobreza se habían visto forzados a robar sus alimentos. Ahora, viven con miedo a los caza recompensas, esos que matan por unos pocos dolares, comandados por un hombre llamado trigero (Klaus Kinski), se han rematado, quieren matar a todos los bandidos que puedan antes de que se apruebe la amnistía, por lo que los pobres se ven forzados a esconderse en las heladas montañas. Un hombre avaro llamado pollicut pone los precios sobre las cabezas de las personas que tigrero asesina. Una de sus víctimas es el esposo de una señora morena, llamada Pauline.
Pollicut quería la mano de Pauline por lo que indirectamente asesina a su marido, el hombre, efectivamente fallece ante el rápido revólver de Tigrero.
Pauline, con su corazón destrozado lo único que desea es la venganza. Contrata a ese que la gente dice, el silencio y la muerte caminan a su lado, un hábil pistolero al cual han llamado silencio (Jean-Louis Trintignant), debido a que perdió el habla cuando era un niño, en manos de caza recompensas los cuales mataron a sus padres y cortaron sus cuerdas vocales en aquel entonces.
Para acabar con los caza recompensas, los cuales matan “de acuerdo a la ley”,el método de silencio consiste en provocarlos para que estos hagan a disparar primero, pero el inescrupuloso Tigrero sabe de esto, por lo que no caerá en su trampa fácilmente.
Corbucci era un director adelantado a su época, los finales de sus películas eran diferentes a lo que se esperaba en aquellos tiempos. El final de está película es lo que la convierte en una obra maestra, en una pieza de denuncia acerca de ese sistema legal y las barbaridades que “en acuerdo con la ley”
se permitían, pero debido a la extrema violencia del mismo (para las mentalidades de esa época), Corbucci se vio presionado a grabar un final alternativo menos sangriento y dramático, en el que el desenlace de los acontecimientos cambiaban radicalmente. Esta es la versión en italiano, con el final original, “de acuerdo con la ley”. Una respuesta a los spaguetti westerns de la época, que sin duda después de todo el tiempo que ha pasado, es una cinta de culto por excelencia.(DVDRIP, DATOS DEL RIP, POSTERS, CAPS y TRAILER en Más Información)


SUBTÍTULOS



DATOS DEL RIP


Format : AVI
Format/Info : Audio Video Interleave
File size : 698 MiB
Duration : 1h 40mn
Overall bit rate : 972 Kbps
Writing application : Nandub v1.0rc2
Writing library : Nandub build 1853/release

Video
ID : 0
Format: MPEG-4 Visual
Codec ID: DIV3
Codec ID/Hint: DivX 3 Low
Duration : 1h 40mn
Bit rate : 845 Kbps
Width : 544 pixels
Height: 320 pixels
Display aspect ratio : 16:9
Frame rate : 25.000 fps
Color space : YUV
Chroma subsampling: 4:2:0
Bit depth : 8 bits
Bits/(Pixel*Frame) : 0.194
Stream size: 607 MiB (87%)

Audio
ID : 1
Format : MPEG Audio
Format version : Version 1
Format profile : Layer 3
Codec ID : 55
Codec ID/Hint : MP3
Duration : 1h 40mn
Bit rate mode : Variable
Bit rate : 116 Kbps
Channel(s) : 1 channel
Sampling rate : 48.0 KHz
Stream size : 82.0 MiB (12%)
Alignment : Aligned on interleaves
Interleave, duration : 24 ms (0.60 video frame)
Interleave, preload duration : 498 ms
Writing library : LAME3.92
Encoding settings : -m m -V 4 -q 2 -lowpass 16 --abr 116



POSTERS








CAPS






TRAILER


Share this article :

+ comentarios + 11 comentarios

4 de agosto de 2010, 0:58

Me la debo hace siglos
Gracias Oinkgasmic

Anónimo
4 de agosto de 2010, 2:11

Great original ITA Western, I must see this ITA version with alternative ending.

About good Ita Westerns see early Sartana films

4 de agosto de 2010, 12:49

This one is in italian, but it has the original ending, the so called "crude one" that makes this movie a master piece.
If you want to see the alternative ending i think it is all on you tube, the sherrifs comes back from the snow and saves everybody, it is really bad and forced...

Anónimo
4 de agosto de 2010, 19:26

una de mis peliculas favoritas nunca me canso de verla...excelente aporte al blog

Anonymous
6 de enero de 2011, 7:08

una de mis peliculas favoritas nunca me canso de verla...excelente aporte al blog

Anonymous
6 de enero de 2011, 7:08

Great original ITA Western, I must see this ITA version with alternative ending.

About good Ita Westerns see early Sartana films

10 de abril de 2012, 9:28

Tengo problemas para poder descargar los subtitulos, tendrias algun otro enlace ?
Saludos Facundo muy buena la pagina felicitaciones!!!

10 de abril de 2012, 10:29

Que problemas?

12 de abril de 2012, 9:04

al igual que señor de poco pelo no puedo descargar los subtitulos y no los encuentro en ningun lado. saludos

12 de abril de 2012, 9:12

aca encontre unos subs que le van como anillo al dedin!

http://www.subdivx.com/X6XMTI3ODc4X-il-grande-silenzio-1968.html

saludos

13 de abril de 2012, 4:45

I wonder how you got so good. This is really a fascinating blog, lots of stuff that I can get into. One thing I just want to say is that your Blog is so perfect!

Publicar un comentario en la entrada



Ayúdanos comentando las películas, puedes publicar subtítulos mejor sincronizados y en diferentes idiomas, mirrors en mediafire.com, Jumbofiles.com, bayfiles.com, glumbouploads.com, rapidshare.com, hotfile.com, nedload.com, cramit.in, megashares.com, letitbit.net, vip-file.com, x7.to, gigasize.com, filezzz.com, filebox.com, depositfiles.com, yourfilesender.com, bitshare.com, o cualquier otro servidor que uses, dvdfull, dvdr5, dvdrip, 720p, 1080p, archivos torrent, emule, soundtrack, banda sonora, OST. 



Evita poner contraseñas o nombres con url de otra web que no sea esta, evita las palabras ofensivas, evita hacer spam, recuerda que en este sitio se comparte solo por placer, así que cualquier aporte es bienvenido.



Para más información

Escríbenos a cinemadeculto@gmail.com

 
Support : Creating Website | Johny Template | Mas Template
Copyright © 2011. CultMoviez! - All Rights Reserved
Template Created by Creating Website Published by Mas Template
Proudly powered by Blogger