Ilsa, She Wolf of the SS (1975) - CultMoviez!
Latest Movie :

Ilsa, She Wolf of the SS (1975)



Imdb
Filmaffinity
RottenTomatoes

Ilsa de 1974 es quizás una de las más infames películas de las exploitation. Precursora de lo que luego fue conocido como Naziploitation, la película se centra en un campo de concentración alemán donde Ilsa, una general científica de la SS con enormes pechos, realiza experimentos a los prisioneros de aquel lugar donde su mayor afición es la de demostrar que las mujeres pueden soportar mucho más dolor que los hombres, por lo tanto deben ser enviadas al frente.
Quien además, no deja pasar ninguna oportunidad al tener tantos prisioneros y aprovecha todas las noches para violarlos a todos (uno por noche eh) Nunca logra estar satisfecha, y grande es su sorpresa cuando le llega un nuevo prisionero que tiene la grandiosa capacidad de mantener una erección en tiempo indeterminado (el decide cuanto) quien literalmente la deja lengua para afuera. Adivinen de qué país es la película y sabrán de qué país es nuestro héroe.
Dyanne Thorne siempre fue identificada como Ilsa después de esta película quien supo disfrutar también de una carrera muy exitosa como comediante, cantante de cabaret y actriz en el escenario. También dio multitud de charlas y autógrafos en las convenciones de película de culto y para siempre estará relacionado con el sádico monstruo del Amazonas-como Ilsa. La película es la primera de una trilogía sobre Ilsa, que le siguen Ilsa, Harem Keeper of the Oil Sheiks (1975) y Ilsa, the Tigress of Siberia (1976) Toda una trilogía de Culto. (DESCARGAR DVDRIP, DATOS DEL RIP, POSTERS, CAPS y TRAILER en Más Información)







DATOS DEL RIP

Format: AVI
Format/Info: Audio Video Interleave
File size: 700 MiB
Duration: 1h 36mn
Overall bit rate: 1 019 Kbps
Writing application: VirtualDubMod 1.5.4.1 (build 2178/release)
Writing library: VirtualDubMod build 2178/release

Video
ID: 0
Format: MPEG-4 Visual
Format profile: Simple@L3
Format settings, BVOP: Yes
Format settings, QPel: No
Format settings, GMC: No warppoints
Format settings, Matrix: Default (H.263)
Muxing mode: Packed bitstream
Codec ID: XVID
Codec ID/Hint: XviD
Duration: 1h 36mn
Bit rate: 870 Kbps
Width: 640 pixels
Height: 384 pixels
Display aspect ratio: 1.667
Frame rate: 23.976 fps
Color space: YUV
Chroma subsampling: 4:2:0
Bit depth: 8 bits
Scan type: Progressive
Bits/(Pixel*Frame): 0.148
Stream size: 598 MiB (85%)
Writing library: XviD 1.1.0 Beta2 (UTC 2005-04-04)

Audio
ID: 1
Format: MPEG Audio
Format version: Version 1
Format profile: Layer 3
Mode: Joint stereo
Mode extension: MS Stereo
Codec ID: 55
Codec ID/Hint: MP3
Duration: 1h 36mn
Bit rate mode: Variable
Bit rate: 135 Kbps
Nominal bit rate: 128 Kbps
Channel(s): 2 channels
Sampling rate: 48.0 KHz
Stream size: 93.1 MiB (13%)
Alignment: Aligned on interleaves
Interleave, duration: 24 ms (0.58 video frame)
Interleave, preload duration: 256 ms
Writing library: LAME3.96r
Encoding settings: -m j -V 4 -q 2 -lowpass 17.5 --abr 128
Language: English


POSTERS









CAPS










TRAILER

Share this article :

+ comentarios + 12 comentarios

Anónimo
15 de mayo de 2012, 14:25

GRACIAS!!!

15 de mayo de 2012, 19:50

hey me encantaria ver esta pelicula, pero la segunda parte del archivo no descarga del mediafire...Podrias por favor arreglarlo... Gracias :D

Anónimo
16 de mayo de 2012, 4:17

aparece fichero 1 y 4 dañados, ayuda por favor! no se puede descargar

16 de mayo de 2012, 4:27

Muchas gracias, Gabylocura, me la llevo, me hace acordar a Salon Kitty de Tinto Brass, mis saludos mil.-

16 de mayo de 2012, 4:48

Por favor, estan corruptos los archivos,( 1 y 4 ) no se puede descomprimir, , gracias.-

16 de mayo de 2012, 11:07

Entonces, van a tener que esperar que la resuba. Eso sera mañana o pasado o quizas la semana que viene...

16 de mayo de 2012, 17:58

Existe una cuarta entrega realizada por JESUS FRANCO : ILSA: THE WICKED GARDEN - Greta the torturer.
Aunque no es una secuela oficial, y el nombre de ella es Greta.

Anónimo
21 de mayo de 2012, 12:57

dañados los archivos. Sin groseria por favor...

21 de mayo de 2012, 20:28

excelente

21 de mayo de 2012, 20:28

fabuloso

Anónimo
24 de mayo de 2012, 8:27

Muchas gracias, pero si es que la subiste de nuevo, siguen caidos los enlaces, , mis saludos mil.-

27 de mayo de 2012, 20:55

Agregado mirro

Publicar un comentario en la entrada



Ayúdanos comentando las películas, puedes publicar subtítulos mejor sincronizados y en diferentes idiomas, mirrors en mediafire.com, Jumbofiles.com, bayfiles.com, glumbouploads.com, rapidshare.com, hotfile.com, nedload.com, cramit.in, megashares.com, letitbit.net, vip-file.com, x7.to, gigasize.com, filezzz.com, filebox.com, depositfiles.com, yourfilesender.com, bitshare.com, o cualquier otro servidor que uses, dvdfull, dvdr5, dvdrip, 720p, 1080p, archivos torrent, emule, soundtrack, banda sonora, OST. 



Evita poner contraseñas o nombres con url de otra web que no sea esta, evita las palabras ofensivas, evita hacer spam, recuerda que en este sitio se comparte solo por placer, así que cualquier aporte es bienvenido.



Para más información

Escríbenos a cinemadeculto@gmail.com

 
Support : Creating Website | Johny Template | Mas Template
Copyright © 2011. CultMoviez! - All Rights Reserved
Template Created by Creating Website Published by Mas Template
Proudly powered by Blogger