Katakuri-ke no kôfuku (2001) - CultMoviez!
Latest Movie :

Katakuri-ke no kôfuku (2001)


Imdb
Filmaffinity
RottenTomatoes

¿Y qué le faltaba a Takashi Miike por hacer? Ya nos sumergió en las historias de los Yakuzas (Koroshiya 1) en el surrealismo violento (Gozu) en los Western (Sdukiyaki Western Django, la cual cuenta en el reparto con Quentin) en los dramas carcelarios (46-okunen no koi) en la historia de un antihéroe (Zebraman) Ahora, nos vuelve a sorprender con un musical de zombies.
Los Katakuris son una familia compuesta por 4 generaciones distintas, unidas por el plan de papá: Abrir un hospedaje en las montañas ya que le llegaron fuentes que le decían que iba a ser una gran fuente de turistas. Esto daba grandes esperanzas, hasta el momento en que su primer cliente se suicida. Peor se pone la cosa cuando su nuevo cliente, un luchador de sumo acompañado de una niña, muere en pleno acto sexual. Esta histriónica familia hara todo lo posible para que estas muertes no sean una mala publicidad para su nueva casa de huespedes.
Ya es sabido que Takashi es un camaleónico director. Comenzando con una animación stop-motion, nos adentramos en un musical con un humor de lo más grotesco. Incluso los más devotos fans de Miike quedaron sorprendedidos con esta bizarreada musical, que en un mismo año, realizó 7 películas. ¡Toda una odisea! Más aún si tenemos en cuenta la calidad de cada uno de estos films.
Un director que decidió no ser repetitivo, nos entrega esta delicia de película que aunque quiera o no, conserva el gusto Takashi Miike. Grotesco, absurdo, delirante, original… Como más lo prefieran, acá tienen La Felicidad de los Katakuris. (DVDRIP, DATOS DEL RIP, POSTERS, CAPS y TRAILER en Más Información)










DATOS DEL RIP

CD 01
Format: AVI
Format/Info: Audio Video Interleave
File size: 701 MiB
Duration: 1h 2mn
Overall bit rate: 1 570 Kbps
Writing application: Nandub v1.0rc2
Writing library: Nandub build 1853/release

Video
ID: 0
Format: MPEG-4 Visual
Codec ID: DIV3
Codec ID/Hint: DivX 3 Low
Duration: 1h 2mn
Bit rate: 1 452 Kbps
Width: 512 pixels
Height: 288 pixels
Display aspect ratio: 16:9
Frame rate: 23.976 fps
Color space: YUV
Chroma subsampling: 4:2:0
Bit depth: 8 bits
Bits/(Pixel*Frame): 0.411
Stream size: 648 MiB (92%)

Audio
ID: 1
Format: MPEG Audio
Format version: Version 1
Format profile: Layer 3
Mode: Joint stereo
Codec ID: 55
Codec ID/Hint: MP3
Duration: 1h 2mn
Bit rate mode: Variable
Bit rate: 105 Kbps
Nominal bit rate: 112 Kbps
Channel(s): 2 channels
Sampling rate: 48.0 KHz
Stream size: 47.0 MiB (7%)
Alignment: Aligned on interleaves
Interleave, duration: 24 ms (0.58 video frame)
Interleave, preload duration: 175 ms
Writing library: LAME3.93a
Encoding settings: -m j -V 4 -q 2 -lowpass 16 --abr 112

CD 02

Format: AVI
Format/Info: Audio Video Interleave
File size: 700 MiB
Duration: 54mn 55s
Overall bit rate: 1 782 Kbps
Writing application: Nandub v1.0rc2
Writing library: Nandub build 1853/release

Video
ID: 0
Format: MPEG-4 Visual
Codec ID: DIV3
Codec ID/Hint: DivX 3 Low
Duration: 54mn 55s
Bit rate: 1 664 Kbps
Width: 512 pixels
Height: 288 pixels
Display aspect ratio : 16:9
Frame rate: 23.976 fps
Color space: YUV
Chroma subsampling: 4:2:0
Bit depth: 8 bits
Bits/(Pixel*Frame): 0.471
Stream size: 654 MiB (93%)

Audio
ID: 1
Format: MPEG Audio
Format version: Version 1
Format profile: Layer 3
Mode: Joint stereo
Codec ID: 55
Codec ID/Hint: MP3
Duration: 54mn 55s
Bit rate mode: Variable
Bit rate: 105 Kbps
Channel(s): 2 channels
Sampling rate: 48.0 KHz
Stream size: 41.2 MiB (6%)
Alignment: Aligned on interleaves
Interleave, duration: 24 ms (0.58 video frame)
Interleave, preload duration: 482 ms


POSTERS







CAPS









TRAILER

Share this article :

+ comentarios + 6 comentarios

4 de agosto de 2010, 12:02

You have a very good blog that the main thing a lot of interesting and beautiful. I rally like it & shared with my friends! hope u go for this website to increase visitor.

6 de enero de 2011, 7:08

You have a very good blog that the main thing a lot of interesting and beautiful. I rally like it & shared with my friends! hope u go for this website to increase visitor.

Anónimo
27 de mayo de 2012, 14:12

qué clase de servidor basura es 180upload.com? no os dais cuenta que con servidores barura como estos desprestigiáis vuestro excelente trabajo?
no funcionan las descargas, pero te inunda de publicidad y cookies invasivas.
Muchas gracias.

27 de mayo de 2012, 15:24

Usá el jdownloader y dejá de quejarte, querés? Es copiar un link y hacer click a un botoncito muy bonito que es parecido al play de los viejos vhs

Anónimo
3 de junio de 2012, 11:00

si, pasa eso, el servidor es muy confuso. pero no me parece que desprestigie para nada porque la pelicula se puede descargar y ESTA AHÍ.
con el JDownloader se automatiza el tramite y listo.
saludos a todos gente.

16 de julio de 2012, 19:14

que onda los subtitulos de esta pelicula?

Publicar un comentario en la entrada



Ayúdanos comentando las películas, puedes publicar subtítulos mejor sincronizados y en diferentes idiomas, mirrors en mediafire.com, Jumbofiles.com, bayfiles.com, glumbouploads.com, rapidshare.com, hotfile.com, nedload.com, cramit.in, megashares.com, letitbit.net, vip-file.com, x7.to, gigasize.com, filezzz.com, filebox.com, depositfiles.com, yourfilesender.com, bitshare.com, o cualquier otro servidor que uses, dvdfull, dvdr5, dvdrip, 720p, 1080p, archivos torrent, emule, soundtrack, banda sonora, OST. 



Evita poner contraseñas o nombres con url de otra web que no sea esta, evita las palabras ofensivas, evita hacer spam, recuerda que en este sitio se comparte solo por placer, así que cualquier aporte es bienvenido.



Para más información

Escríbenos a cinemadeculto@gmail.com

 
Support : Creating Website | Johny Template | Mas Template
Copyright © 2011. CultMoviez! - All Rights Reserved
Template Created by Creating Website Published by Mas Template
Proudly powered by Blogger