The One Armed Boxer vs. the Flying Guillotine a.k.a Master of the flying guillotine (1975) - CultMoviez!
Latest Movie :

The One Armed Boxer vs. the Flying Guillotine a.k.a Master of the flying guillotine (1975)

IMDB
Filmaffinity
Rotten Tomatoes
The Deuce

Una paloma mensajera llega con un mensaje, su receptor, es nadie más ni nadie menos que Fung Sheng, el maestro de la guillotina voladora, esa arma mitad verdad, mitad leyenda capaz de cortar cabezas a distancia limpiamente. Fung mueve sus cejas de esa forma tan particular en la que acostumbra, toma el mensaje de la pata del animal, sus discípulos Chow Fu y Chow Lung han sido asesinados por un hombre con un solo brazo. Fung se aferra a su arma y frente a unos pobres muñecos plásticos y una gallina nos enseña que su puntería es infalible por más que él sea ciego. Ahora se dirige hacía ese hombre de un solo brazo para matarlo en persona.
Se realizará un torneo de artes marciales, donde participarán luchadores de toda asia, el luchador de un solo brazo ha sido invitado al mismo, Fung sabe de esto, y esta muy enfadado.
Con una lucha final alucinante y unas excelentes coreografías por parte de los hermanos Leung, esta es una de las mejores cintas de guillotinas voladoras (los Shaw Brothers escogieron el arma como título de una de sus películas un año antes de esta), no se resiste al olvido, sus múltiples seguidores (me incluyo) que aún posee lo confirman. Veremos muchos estilos de lucha, un hombre que puede estirar sus brazos dos metros, el estilo de la garra de águila, el mono, el boxeo tailandes, piel de acero y muchos otros más debido al torneo de artes marciales, al cual le dedican un buen tiempo en la película. Tomando al espadachín de un solo brazo como inspiración, Jimmy Wang Yu, es su propio héroe discapacitado (dirige el metraje y lo protagoniza), y en su segunda película como boxeador de solo un brazo, nos regala toneladas de acción y violencia como solo el sabe, con sus armas inspiradoras y habilidades especiales de los personajes que le caracterizan. Una película imperdible para todo aquel que guste de las cintas de artes marciales. (DVDRIP, DATOS DEL RIP, POSTERS, CAPS y TRAILER en Más Información)






DESCARGAR
SUBTÍTULOS


DATOS DEL RIP

Format : AVI
Format/Info : Audio Video Interleave
File size : 690 MiB
Duration : 1h 33mn
Overall bit rate : 1 035 Kbps
Writing application : Nandub v1.0rc2
Writing library : Nandub build 1852/release

Video
ID : 0
Format : MPEG-4 Visual
Format profile : Advanced Simple@L5
Format settings, BVOP : Yes
Format settings, QPel : Yes
Format settings, GMC : No warppoints
Format settings, Matrix : Default (H.263)
Codec ID : XVID
Codec ID/Hint : XviD
Duration : 1h 33mn
Bit rate : 914 Kbps
Width : 544 pixels
Height : 224 pixels
Display aspect ratio : 2.40:1
Frame rate : 23.976 fps
Color space : YUV
Chroma subsampling : 4:2:0
Bit depth : 8 bits
Scan type : Progressive
Bits/(Pixel*Frame) : 0.313
Stream size : 609 MiB (88%)
Writing library : XviD 1.0.0 RC4 (Hola) (UTC 2004-04-05)

Audio
ID : 1
Format : AC-3
Format/Info : Audio Coding 3
Mode extension : CM (complete main)
Codec ID : 2000
Duration : 1h 33mn
Bit rate mode : Constant
Bit rate : 112 Kbps
Channel(s) : 2 channels
Channel positions : Front: L R
Sampling rate : 48.0 KHz
Bit depth : 16 bits
Stream size : 74.6 MiB (11%)
Alignment : Split accross interleaves
Interleave, duration : 42 ms (1.00 video frame)
Interleave, preload duration : 500 ms


POSTERS



CAPS






TRAILER


Share this article :

+ comentarios + 5 comentarios

5 de agosto de 2010, 6:54

Me salvaste de tener que subirla y hacer un esfuerzo sobre humano por comentarla.

Genial película!

6 de agosto de 2010, 13:11

One word: Excellent!

One of the best films on this site

6 de enero de 2011, 7:08

One word: Excellent!

One of the best films on this site

Anónimo
17 de abril de 2012, 16:02

Temgo problemas con la descarga, pudieran decirme como descargarla?

17 de abril de 2012, 22:37

Click en Descargar. Luego se abre la página de Addfly. Arriba a la derecha hay un conteo de 5 a 0, una vez que termina sale el botón "Saltar publicidad" y ahí se abre la página jumbofiles. Ahí tenes Download File y luego de clickearle te sale el nombre del archivo y un nuevo Download. Ese sería el último click.

Saludos

Publicar un comentario en la entrada



Ayúdanos comentando las películas, puedes publicar subtítulos mejor sincronizados y en diferentes idiomas, mirrors en mediafire.com, Jumbofiles.com, bayfiles.com, glumbouploads.com, rapidshare.com, hotfile.com, nedload.com, cramit.in, megashares.com, letitbit.net, vip-file.com, x7.to, gigasize.com, filezzz.com, filebox.com, depositfiles.com, yourfilesender.com, bitshare.com, o cualquier otro servidor que uses, dvdfull, dvdr5, dvdrip, 720p, 1080p, archivos torrent, emule, soundtrack, banda sonora, OST. 



Evita poner contraseñas o nombres con url de otra web que no sea esta, evita las palabras ofensivas, evita hacer spam, recuerda que en este sitio se comparte solo por placer, así que cualquier aporte es bienvenido.



Para más información

Escríbenos a cinemadeculto@gmail.com

 
Support : Creating Website | Johny Template | Mas Template
Copyright © 2011. CultMoviez! - All Rights Reserved
Template Created by Creating Website Published by Mas Template
Proudly powered by Blogger