Tokyo Gore Police (2008) - CultMoviez!
Latest Movie :

Tokyo Gore Police (2008)


Tokyo está ardiendo...

Es un futuro cercano, en un guión que podría ser perfectamente el de un manga o un anime, japón es un desastre, la policía ha sido privatizada, convertida así en una gran corporación, que, al contrario de la policía normal, utiliza la violencia, el sadismo y la fuerza bruta para mantener el orden en las calles, las cuales están infestadas por una nueva amenaza. Un científico loco conocido como “key man" ha creado un virus que convierte a las personas en unas monstruosas caricaturas llamadas “los ingenieros”, aquellos que generan armas bizarras al ser heridos o mutilados, solo es posible matarles destruyendo sus nuevas extremidades, pero para eso esta Ruka, la cazadora de ingenieros de la fuerza de policía de tokyo, solitaria, fría, entrenada para el oficio, hará a todos conocer el filo de su katana...

Mientras trabajaba en los efectos especiales de The Machine Girl de Noboru Iguchi, Tokyo shock le preguntó a Yoshihiro Nishimura si quería realizar otro filme, el accedió y comenzó a crear Tokyo Gore police, una expansión de una película independiente que el mismo había hecho en 1995, llamada Anatomia Extinction, la cual había recibido el premio especial del jurado en el Yubari international fanstastic film festival de 1995. Rodada en tan solo dos semanas, tokyo gore police sería la primera película comercial de Nishimura. Bien recibida en diferentes festivales como el Stitges 08 y ganadora en Buenos Aires Rojo Sangre 08 a mejor película y efectos especiales, se ha hecho famosa en pequeños círculos alrededor de todo el mundo. Es de esas que llegas a amar o detestas, sin intermedios en la mayoría de los casos, una historia cargada de acción sangrienta y demencial, repleta de metamorfosis fetichistas y modificaciones corporales imposibles, película que crea un impacto cultural, sorprende a las audiencias e incluso aprovecha para de paso hacer una sátira a la sociedad bañada en litros de sangre presurizada nipona mojando nuestra pantalla.

En el apartado de la banda sonora tenemos un embriagante trabajo por parte de Kou Nakagawa, con melodías épicas con tintes culturales japoneses rozando muchos géneros a la vez durante toda su extensión, el orquestal, el clásico, el militar, el metal y la música Synth y electrónica. Con uno de los mejores temas principales de la última década. Siendo exclusiva como disco aparte, del Gore Edition' DVD (la versión japonesa de la película), esta hoy disponible para descarga aquí en esta entrada.

…Además de ayudar a la policía, Ruka vive buscando al asesino de su padre, un oficial de policía de la vieja usanza. Ruka recibe una nueva misión, darle muerte al “key man”. Cuando ella lo conoce, se da cuenta de que ambos buscan venganza contra los oficiales corruptos que mataron a los padres de ambos hace mucho tiempo atrás. Pronto la vida de Ruka toma un giro trágico e irónico que la llevara a buscar su sangrienta venganza...

Un filme super imaginativo, repleto de iconismo japones y que al ver rostros como el de Eihi Shiina, (la cual vimos por última vez cortando los pies de Ryo en Audition) en el papel protagónico, nos dejan pensando y admirando lo abierta que es la mente de los japoneses para con cualquier tipo de cine donde ahora Nishimura es aclamado, esta cinta es de colección, posee un aroma de cine de culto desde el principio, una película que debe ser vista para ser completamente creída...

(DVDRIP, OST, DATOS DEL RIP, DATOS DE LA OST, POSTERS, CAPS y TRAILER en "Más Información")


   Subtítulos (incrustados en el .avi)  
OST

DATOS DEL RIP:

General

Format : AVI
Format/Info: Audio Video Interleave
File size : 752 MiB
Duration : 1h 46mn

Overall bit rate : 986 Kbps
Writing application : VirtualDubMod 1.5.10.1 (build 2366/release)
Writing library : VirtualDubMod build 2366/release

Video
ID: 0
Format : MPEG-4 Visual
Format profile : Advanced Simple@L5
Format settings, BVOP : Yes
Format settings, QPel  : No
Format settings, GMC : No warppoints
Format settings, Matrix : Default (H.263)
Codec ID: XVID
Codec ID/Hint : XviD
Duration: 1h 46mn
Bit rate : 877 Kbps
Width : 672 pixels
Height : 368 pixels
Display aspect ratio : 16:9
Frame rate : 23.976 fps
Color space : YUV
Chroma subsampling : 4:2:0
Bit depth : 8 bits
Scan type :Progressive
Bits/(Pixel*Frame) :0.148
Stream size : 669 MiB (89%)
Writing library  : XviD 1.0.2 (UTC 2004-08-29)

Audio
ID : 1
Format : MPEG Audio
Codec ID : 55
Codec ID/Hint : MP3
Duration : 1h 46mn
Bit rate  : 96.0 Kbps
Channel(s) : 2 channels
Sampling rate : 48.0 KHz
Stream size  : 73.2 MiB (10%)
Alignment : Split accross interleaves
Interleave, duration : 24 ms (0.58 video frame)
Interleave, preload duration : 508 ms

 

DATOS DE LA OST:

Format : MPEG Audio
Format version  : Version 1
Format profile: Layer 3
Bit rate mode : Constant
Bit rate  : 320 Kbps
Channel(s)   : 2 channels
Sampling rate : 44.1 KHz
Stream size  : 14.8 MiB (100%)
Writing library : LAME3.97a
Encoding settings  : -m s -V 4 -q 3 -lowpass 20.5


POSTERS:


 
CAPS:


TRAILER:
Share this article :

+ comentarios + 4 comentarios

5 de septiembre de 2010, 22:10

Muchas gracias! tenia ganas de ver Frankestein girl vs Vampire girl (o titulo parecido) pero me parece que son del mismo director y bueno, miro estatambién!

buenisimo como siempre el blog!!!

5 de septiembre de 2010, 22:13

Muchas gracias! tenia ganas de ver Frankestein girl vs Vampire girl (o titulo parecido) pero me parece que son del mismo director y bueno, miro estatambién!

buenisimo como siempre el blog!!!

28 de septiembre de 2010, 22:32

muy bello gore!!!

Anónimo
30 de abril de 2012, 18:48

link caido

Publicar un comentario en la entrada



Ayúdanos comentando las películas, puedes publicar subtítulos mejor sincronizados y en diferentes idiomas, mirrors en mediafire.com, Jumbofiles.com, bayfiles.com, glumbouploads.com, rapidshare.com, hotfile.com, nedload.com, cramit.in, megashares.com, letitbit.net, vip-file.com, x7.to, gigasize.com, filezzz.com, filebox.com, depositfiles.com, yourfilesender.com, bitshare.com, o cualquier otro servidor que uses, dvdfull, dvdr5, dvdrip, 720p, 1080p, archivos torrent, emule, soundtrack, banda sonora, OST. 



Evita poner contraseñas o nombres con url de otra web que no sea esta, evita las palabras ofensivas, evita hacer spam, recuerda que en este sitio se comparte solo por placer, así que cualquier aporte es bienvenido.



Para más información

Escríbenos a cinemadeculto@gmail.com

 
Support : Creating Website | Johny Template | Mas Template
Copyright © 2011. CultMoviez! - All Rights Reserved
Template Created by Creating Website Published by Mas Template
Proudly powered by Blogger