All About Lily Chou-Chou (2001) - CultMoviez!
Latest Movie :

All About Lily Chou-Chou (2001)

IMDB
FilmAffinity
Rotten Tomatoes

Shunji Iwai nos lleva a un mundo decadente, donde el proceso de crecer y manejarse en un instituto en Japón es difícil. A pesar de la violencia y abusos por parte de otros estudiantes, todos deben soportar la gran presión social y familiar que les obliga a obtener buenos resultados escolares, saboreando así, a muy temprana edad las consecuencias del fracaso. Sin padres que escuchen ni nadie que consuele a nadie, todo pasa lento, con ironía, nostalgia y crudeza. 
En las grandes y verdes plantaciones de arroz, pasa el tiempo Yuichi con su única compañia, sus audífonos y la música de Lily Chou Chou. Su conocimiento y amor por su música lo han llevado a crear un sitio web llamado lilyphilia, en el cual los otros usuarios se asombran del montón de cosas que sabe acerca de la artista. Solo allí, bajo nick names pueden realmente vivir su vida. El sitio y la música de lily son la única escapatoria de ese mundo en el que apenas pueden “respirar”.
La atmósfera se complemeta con la hermosa música de Claude Debussy y la ficticia Lily Chou Chou, cuya música fue compuesta por Takeshi Kobayashi, con vocales de la artista japonesa Salyu.
Atrevida por su duración y sus técnicas innovadoras, como lo es una pantalla negra con letras blancas en las que se expresan los comentarios de los diversos usuarios del sitio, All about lily chou-chou sigue sin orden cronológico, la historia de dos amigos de la infancia, Hoshino y el ya mencionado Yuichi, desde la primaria hasta el principio de la secundaria, y nos cuenta después, como, Hoshino, después de una traumática experiencia se convierte en lo que la sociedad adolescente fabrica, siempre fue fuerte y el mejor en todo. Ahora es un abusador y manipulador. su pandilla causa miedo, y Yuichi no escapa del mismo, es obligado a realizar cosas humillantes y constantemente abusado.
Conoceremos las historias de otros adolescentes  victimas de Hoshino y la sociedad, todo con el mismo ritmo real, crudo, lento. Presentándonos el vídeo de las vacaciones de Yuichi y Hoshino en un estilo de vídeo casero que no va ser muy diferente al vídeo de las vacaciones de muchas otras personas. Partes de conversación cotidiana entre los jóvenes y una combinación magistral de imágenes y las letras en el fondo negro, que crean una nueva forma de contar un relato, una forma que nos hace perdernos en el mismo y lentamente nos lleva hacía el gran desenlace, un final inolvidable. La película exige mucha atención por parte de su espectador, pero si es comprendida recompensara al mismo con creces. 

(DVDrip, Datos del Rip, Posters, Caps y Trailer en "Mas Informacion")



DATOS DEL RIP:

General
Format  : AVI
Format/Info  : Audio Video Interleave
File size  : 794 MiB
Duration  : 2h 26mn
Overall bit rate : 759 Kbps
Writing application  : MEncoder 2:1.0~rc2-0ubuntu19+medibuntu1
Writing library : MPlayer

Video
ID: 0
Format : MPEG-4 Visual
Format profile  : Advanced Simple@L5
Format settings, BVOP  : Yes
Format settings, QPel  : No
Format settings, GMC  : No warppoints
Format settings, Matrix  : Default (H.263)
Codec ID  : XVID
Codec ID/Hint   : XviD
Duration : 2h 26mn
Bit rate : 665 Kbps
Width  : 640 pixels
Height : 320 pixels
Display aspect ratio : 2.000
Frame rate : 23.976 fps
Color space  : YUV
Chroma subsampling   : 4:2:0
Bit depth  : 8 bits
Scan type  : Progressive
Bits/(Pixel*Frame) : 0.135
Stream size : 696 MiB (88%)
Writing library: XviD 1.2.1 (UTC 2008-12-04)

Audio
ID   : 1
Format  : MPEG Audio
Format version : Version 1
Format profile   : Layer 3
Mode : Joint stereo
Mode extension : MS Stereo
Codec ID : 55
Codec ID/Hint : MP3
Duration : 2h 26mn
Bit rate mode : Variable
Bit rate   : 80.0 Kbps
Channel(s) : 2 channels
Sampling rate  : 44.1 KHz
Stream size : 85.1 MiB (11%)
Alignment  : Aligned on interleaves
Interleave, duration  : 26 ms (0.63 video frame)
Interleave, preload duration  : 540 ms


POSTERS


CAPS


TRAILER
 
Share this article :

+ comentarios + 6 comentarios

Anónimo
5 de septiembre de 2011, 17:54

HOLA, ALGUIN ME PUDE DECIR EN DONDE ENCONTRAR SUBTITULOS EN ESPAÑOL PARA ESTA PELICULA All About Lily Chou-Chou (2001). GRACIAS

7 de septiembre de 2011, 21:33

Mm, donde dice subtitulos abajo de descarga, esos son en español

Anónimo
11 de mayo de 2012, 17:35

hola,la parte 1,3 y 4 andan bien pero la parte 2 no.queda siempre en "preparing download" y despues te da la opcion de repararlo pero igual no pasa nada

Anónimo
11 de mayo de 2012, 18:13

Puede que la parte 3 este dañada, no la puedo bajar. Gracias

Anónimo
11 de mayo de 2012, 18:13

en la parte 2 el boton de download no se termina de cargar bien.no se puede bajar

14 de mayo de 2012, 23:11

una pregunta en las caps se ven encimados subs en ingles y español, asi esta el archivo original [con subs en ingles]???


PD no me canso de decir que su pagina sta de poca madre!!!!

Publicar un comentario en la entrada



Ayúdanos comentando las películas, puedes publicar subtítulos mejor sincronizados y en diferentes idiomas, mirrors en mediafire.com, Jumbofiles.com, bayfiles.com, glumbouploads.com, rapidshare.com, hotfile.com, nedload.com, cramit.in, megashares.com, letitbit.net, vip-file.com, x7.to, gigasize.com, filezzz.com, filebox.com, depositfiles.com, yourfilesender.com, bitshare.com, o cualquier otro servidor que uses, dvdfull, dvdr5, dvdrip, 720p, 1080p, archivos torrent, emule, soundtrack, banda sonora, OST. 



Evita poner contraseñas o nombres con url de otra web que no sea esta, evita las palabras ofensivas, evita hacer spam, recuerda que en este sitio se comparte solo por placer, así que cualquier aporte es bienvenido.



Para más información

Escríbenos a cinemadeculto@gmail.com

 
Support : Creating Website | Johny Template | Mas Template
Copyright © 2011. CultMoviez! - All Rights Reserved
Template Created by Creating Website Published by Mas Template
Proudly powered by Blogger