Hombre Mirando al Sudeste (1986) - CultMoviez!
Latest Movie :

Hombre Mirando al Sudeste (1986)


Imdb
Filmaffinity
RottenTomatoes

Hombre mirando al sudeste supo en los 80s, año en que fue parida, ganar premios al mejor director, mejor película, mejor opera prima, mejor película extranjera, mejor actor.
Ya, unos 20 años después aproximadamente, supo ser víctima del plagio estadounidense “X - Pax”, película de Iain Softley hecha en 2001. 

Supuestamente está basada en una novela del escritor Gene Brewer, pero esto supondría el pasarse la pelota y acusar del plagio a alguien más. Sea el caso que fuere, lo que menos importa acá es la aberración de la copia, sino que lo que de verdad importa es esta gran pieza argentina.
La historia se basa en un hombre, quien llega a un psiquiátrico asegurando ser un extraterrestre, un holograma avanzado procedente de una lejanísima civilización no humana. Obviamente, el doctor que lo atiende no cree ni una sola palabra de lo que dice. Pero luego, diversos sucesos comienzan a levantar sospechas a quien se supone que es el cuerdo, el sano,el curador.
Esta película, que contiene una trama de lo más simple aunque sincera, no solo constituye una crítica reflexiva hacia los aparatos represivos  como lo fueron siempre los psiquiátricos, sino que también es una obra con un lenguaje y un carácter de lo más humano posible. Con una interpretación ganadora de Hugo Soto, no me arrepiento de levantar a esta película como una de las mejores hechas en la Argentina. Y si… ¿Por qué no? De Latinoamérica también.  (DVDRIP, DATOS DEL RIP, POSTERS, CAPS y TRAILER en Mas Información)





DESCARGAR 01 / 02 / 03 / 04


DATOS DEL RIP

Format: AVI
Format/Info : Audio Video Interleave
File size: 700 MiB
Duration: 1h 43mn
Overall bit rate: 941 Kbps
Writing application: VirtualDubMod 1.5.4.1 (build 2178/release)
Writing library: VirtualDubMod build 2178/release

Video
ID: 0
Format: MPEG-4 Visual
Format profile: Advanced Simple@L5
Format settings, BVOP: Yes
Format settings, QPel: No
Format settings, GMC: No warppoints
Format settings, Matrix: Custom
Codec ID: XVID
Codec ID/Hint: XviD
Duration: 1h 43mn
Bit rate: 805 Kbps
Width: 448 pixels
Height: 336 pixels
Display aspect ratio: 4:3
Frame rate: 29.970 fps
Color space: YUV
Chroma subsampling: 4:2:0
Bit depth: 8 bits
Scan type: Progressive
Bits/(Pixel*Frame): 0.178
Stream size: 598 MiB (85%)
Writing library: XviD 1.2.0SMP (UTC 2006-01-08)

Audio
ID: 1
Format: MPEG Audio
Format version: Version 1
Format profile: Layer 3
Mode: Joint stereo
Mode extension: MS Stereo
Codec ID: 55
Codec ID/Hint: MP3
Duration: 1h 43mn
Bit rate mode: Constant
Bit rate: 128 Kbps
Channel(s): 2 channels
Sampling rate: 48.0 KHz
Stream size: 95.2 MiB (14%)
Alignment: Aligned on interleaves
Interleave, duration: 67 ms (2.00 video frames)
Interleave, preload duration 504 ms
Writing library: LAME3.97b
Encoding settings: -m j -V 4 -q 2 -lowpass 17 -b 128





POSTER

CAPS


TRAILER




Share this article :

+ comentarios + 5 comentarios

Anónimo
14 de septiembre de 2010, 9:48

excelente pelicula argentina

14 de septiembre de 2010, 12:04

De verdad que lo es!

Anonymous
6 de enero de 2011, 7:07

excelente pelicula argentina

Anónimo
9 de mayo de 2012, 20:51

hola muchachos, esperando que esten bien los saludo.

mi pregunta es simple.
quisiera que me recomienden peliculas basadas en libros o tengan contenidos como los libros.
Hermann Hesse,Jean-Paul Sartre,Henry Miller,William Faulkner,Albert Camus,Franz Kafka,André Gide,Ernesto Sábato y Gabriel García Márquez.
espero me puedan ayudar a ver peliculas relacionadas con esos libros o que contengan cosas como tal.
muchas gracias.
neftali

10 de mayo de 2012, 2:59

Mmm... De Hesse hay una adaptacion de su Lobo Estepario:

http://www.cultmoviez.net/2011/01/steppenwolf-1974.html

Es una de las tantas por resubir. Luego, de Sartre, Vittorio de Sica hizo una adaptacion suya:

http://www.filmaffinity.com/es/film901639.html

TRÓPICO DE CANCER (1970) de Joseph Strick, Adaptación cinematográfica de la primera novela publicada de Henry Miller.

De Kafka, tenes varios, desde The Trial (http://www.cultmoviez.net/2012/04/trial-le-proces-el-proceso-1962.html), de Orson Welles, hasta la argentina Los Amores de Kafka, o The Castle de Rudolph Noelte.

En eso podria ayudarte, che.

Publicar un comentario en la entrada



Ayúdanos comentando las películas, puedes publicar subtítulos mejor sincronizados y en diferentes idiomas, mirrors en mediafire.com, Jumbofiles.com, bayfiles.com, glumbouploads.com, rapidshare.com, hotfile.com, nedload.com, cramit.in, megashares.com, letitbit.net, vip-file.com, x7.to, gigasize.com, filezzz.com, filebox.com, depositfiles.com, yourfilesender.com, bitshare.com, o cualquier otro servidor que uses, dvdfull, dvdr5, dvdrip, 720p, 1080p, archivos torrent, emule, soundtrack, banda sonora, OST. 



Evita poner contraseñas o nombres con url de otra web que no sea esta, evita las palabras ofensivas, evita hacer spam, recuerda que en este sitio se comparte solo por placer, así que cualquier aporte es bienvenido.



Para más información

Escríbenos a cinemadeculto@gmail.com

 
Support : Creating Website | Johny Template | Mas Template
Copyright © 2011. CultMoviez! - All Rights Reserved
Template Created by Creating Website Published by Mas Template
Proudly powered by Blogger