La Mariee était en Noir (1967) - CultMoviez!
Latest Movie :

La Mariee était en Noir (1967)


Imdb
Filmaffinity
RottenTomatoes


Ya desde el vamos, esa cinta de Truffaut se propone incomodar al espectador, generar una perturbación constante.
Un poco el mismo procedimiento que llevaron adelante los demás representante de esa corriente renovadora del cine como lo fue la Nouvelle Vague, que cambiaria para siempre la manera de pensar el cine y de usar sus herramientas y que afectaría irremediablemente la percepción cinéfila de muchos.
Basada en la novela “The Bride Wore Black” de William Irish, el realizador de Los 400 Golpes con solo el titulo ya se está desafiando los cánones, poniendo en jaque todas las nociones más tradicionales sobre el matrimonio. Aquí tenemos a una novia que en el mismo día de su casamiento pierde a su marido de la manera más cruel posible.
Lejos de juzgar a su protagonista, interpretado por Jeanne Moreau, Trufaut decide recurrir a los oportunos flashbacks para mostrarnos la génesis de esa historia de amor que quedo trunca en el momento en que debería haber empezado y que altero la existencia de esta mujer enamorada. El conflicto, por lo tanto, es abordado de un modo desesperante, agobiante, incluso desde la puesta en escena, donde el hincapié en la intimidad hace aun más terribles esas ejecuciones cometidas por Julie Kohler, todas llevadas a cabo en el deseo ulterior de restituir una vida, de seguir adorando a un muerto.
¿Vieron las notables influencias de Tarantino para sus producciones? Bueno, cojan “La novia vestia de negro” de Truffaut, agréguenle unos cuantos asiáticos, mezclarle un poquito de la música de Meiko Kaji y mucha sangre y como resultado tienen Kill Bill.
En síntesis, un titulo imprescindible para todo amante del cine. (DVDRIP DUAL, DATOS DEL RIP, POSTERS, CAPS y TRAILER en Mas Información) 










DATOS DEL RIP

Format: AVI
Format/Info: Audio Video Interleave
File size: 852 MiB
Duration: 1h 47mn
Overall bit rate: 1 105 Kbps
Writing application: VirtualDubMod 1.5.10.1 (build 2366/release)
Writing library: VirtualDubMod build 2366/release

Video
ID: 0
Format: MPEG-4 Visual
Format profile: Advanced Simple@L5
Format settings, BVOP: Yes
Format settings, QPel: No
Format settings, GMC: No warppoints
Format settings, Matrix: Default (H.263)
Codec ID: XVID
Codec ID/Hint: XviD
Duration: 1h 47mn
Bit rate: 779 Kbps
Width: 512 pixels
Height: 304 pixels
Display aspect ratio: 1.684
Frame rate: 23.976 fps
Color space: YUV
Chroma subsampling: 4:2:0
Bit depth: 8 bits
Scan type: Progressive
Bits/(Pixel*Frame): 0.209
Stream size: 600 MiB (70%)
Writing library: XviD 1.0.1 (UTC 2004-06-05)

Audio #1
ID: 1
Format: MPEG Audio
Format version: Version 1
Format profile: Layer 3
Mode: Joint stereo
Mode extension: MS Stereo
Codec ID: 55
Codec ID/Hint: MP3
Duration: 1h 47mn
Bit rate mode: Variable
Bit rate: 117 Kbps
Nominal bit rate: 128 Kbps
Channel(s): 2 channels
Sampling rate: 48.0 KHz
Stream size: 90.0 MiB (11%)
Alignment: Aligned on interleaves
Interleave, duration: 24 ms (0.58 video frame)
Interleave, preload duration: 157 ms
Writing library: LAME3.90.
Encoding settings: -m j -V 4 -q 2 -lowpass 17.6 --abr 128
Language: English

Audio #2
ID: 2
Format: MPEG Audio
Format version: Version 1
Format profile: Layer 3
Codec ID: 55
Codec ID/Hint: MP3
Duration: 1h 47mn
Bit rate mode: Constant
Bit rate: 192 Kbps
Channel(s): 2 channels
Sampling rate: 44.1 KHz
Video delay: 26ms
Stream size: 148 MiB (17%)
Alignment: Split accross interleaves
Interleave, duration: 42 ms (1.00 video frame)
Interleave, preload duration: 500 ms
Writing library: LAME3.92


POSTERS



CAPS



TRAILER




Share this article :

+ comentarios + 3 comentarios

13 de septiembre de 2010, 3:00

y se supone, según una entrevista en japattack(www.japattack.com/main/?q=node/79), que tarantino nunca vio esta película, al menos para cuando había hecho kill bill.. ja ja, gracias por la subida ^__^

13 de septiembre de 2010, 13:37

Jaja, si he leido eso. Pero.. Vamos! Es re Kill Bill esta pelicula. O al reves. Kill Bill es re "La Marieee.."

Anónimo
25 de abril de 2012, 18:38

Los subtitulos no me los lee ningun reproductor, podrías chequearlos, porfa!!! gracia

Publicar un comentario en la entrada



Ayúdanos comentando las películas, puedes publicar subtítulos mejor sincronizados y en diferentes idiomas, mirrors en mediafire.com, Jumbofiles.com, bayfiles.com, glumbouploads.com, rapidshare.com, hotfile.com, nedload.com, cramit.in, megashares.com, letitbit.net, vip-file.com, x7.to, gigasize.com, filezzz.com, filebox.com, depositfiles.com, yourfilesender.com, bitshare.com, o cualquier otro servidor que uses, dvdfull, dvdr5, dvdrip, 720p, 1080p, archivos torrent, emule, soundtrack, banda sonora, OST. 



Evita poner contraseñas o nombres con url de otra web que no sea esta, evita las palabras ofensivas, evita hacer spam, recuerda que en este sitio se comparte solo por placer, así que cualquier aporte es bienvenido.



Para más información

Escríbenos a cinemadeculto@gmail.com

 
Support : Creating Website | Johny Template | Mas Template
Copyright © 2011. CultMoviez! - All Rights Reserved
Template Created by Creating Website Published by Mas Template
Proudly powered by Blogger