Made in Britain (1982) - CultMoviez!
Latest Movie :

Made in Britain (1982)


Imdb
Filmaffinity
RottenTomatoes


Esta película, gusta por varios motivos. Primero, tenemos el debut cinematográfico de un jovencísimo Tim Roth, que a lo largo de su carrera supo hacer papeles del todo creíbles (Reservoir Dogs, The Cook, The Thief, His Wife and Her Lover) 

Luego, debemos tener en cuenta la temática que aborda. Porque no se trata de la típica película sobre skinheads neonazis en que se centran en las peleas callejeras, las noches de bares y demás. Sino que toca de forma inteligente la problemática de la juventud en Inglaterra allá en los 80s, rodeados de violencia (no solo física, además mental) y la negligencia del poder para remediarla. El No Future con el que cargaban los jóvenes marginales en ese tiempo, sean punks o skinheads, que no ofrecía una alternativa más que la de seguir las bellas y respetadas costumbres inglesas y así por los siglos de los siglos.

Esta es una temática que le gusto llevar a cabo en sus películas a Alan Clarke (Vease Scum) donde la violencia genera violencia y las problemáticas de los adolescentes cuando no se le presentan oportunidades deseadas.

Con una banda sonora hecha por The Exploited y un andar (del todo característico de Tim Roth) con sus botas y tirantes por las calles de la ciudad y donde esa mirada al final, nos presagia un futuro sin esperanza. (DVDRIP, DATOS DEL RIP, POSTERS, CAPS y TRAILER en Mas Informacion)







DATOS DEL RIP

Format: AVI
Format/Info: Audio Video Interleave
File size: 700 MiB
Duration: 1h 12mn
Overall bit rate: 1 346 Kbps

Video
ID: 0
Format: MPEG-4 Visual
Format profile: Advanced Simple@L5
Format settings, BVOP: No
Format settings, QPel: No
Format settings, GMC: No warppoints
Format settings, Matrix: Default (MPEG)
Codec ID: XVID
Codec ID/Hint: XviD
Duration: 1h 12mn
Bit rate: 1 209 Kbps
Width: 560 pixels
Height: 400 pixels
Display aspect ratio: 1.400
Frame rate: 25.000 fps
Color space: YUV
Chroma subsampling: 4:2:0
Bit depth: 8 bits
Scan type: Progressive
Bits/(Pixel*Frame): 0.216
Stream size: 628 MiB (90%)
Writing library: XviD 1.2.0.dev47 (UTC 2006-11-01)

Audio
ID: 1
Format: MPEG Audio
Format version: Version 1
Format profile: Layer 3
Mode: Joint stereo
Mode extension: MS Stereo
Codec ID: 55
Codec ID/Hint: MP3
Duration: 1h 12mn
Bit rate mode: Constant
Bit rate: 128 Kbps
Channel(s): 2 channels
Sampling rate: 48.0 KHz
Stream size: 66.5 MiB (10%)
Alignment: Aligned on interleaves
Interleave, duration: 40 ms (1.00 video frame)
Interleave, preload duration: 504 ms
Writing library: LAME3.97b
Encoding settings: -m j -V 4 -q 2 -lowpass 17 -b 128


POSTERS


CAPS



TRAILER



Share this article :

+ comentarios + 11 comentarios

28 de septiembre de 2010, 1:11

Exclente, la baje y mañana subo una crítica a mi blog.
Me encantó relamnete
Siempre me hacen encontrar estas joyitas

6 de enero de 2011, 7:07

Exclente, la baje y mañana subo una crítica a mi blog.
Me encantó relamnete
Siempre me hacen encontrar estas joyitas

Anónimo
27 de abril de 2011, 0:07

link de "made in britain" caido

Anónimo
18 de mayo de 2011, 7:40

Gran blog.... Link caido!

Hank
1 de julio de 2011, 1:27

Ups, que lastima, link muerto... paso en otro momento... mientras, sigo descubriendo otras joyas y alucinando con este blog. Saludos desde Quilmes, Argentina.

29 de agosto de 2011, 7:51

Yap! Link bien muerto...

Anónimo
1 de septiembre de 2011, 0:04

rolen el link, porfavor...
Pablo

Anónimo
14 de diciembre de 2011, 16:36

podriais subirla d nuevo
gracias

10 de mayo de 2012, 5:54

The Dark Backward, donde se puede conseguir esta película de culto del año 91?

Hank
10 de mayo de 2012, 7:11

Por fin ! bajando.... Gracias !!!

26 de mayo de 2012, 0:37

Ya no sirven los links :-(

Publicar un comentario en la entrada



Ayúdanos comentando las películas, puedes publicar subtítulos mejor sincronizados y en diferentes idiomas, mirrors en mediafire.com, Jumbofiles.com, bayfiles.com, glumbouploads.com, rapidshare.com, hotfile.com, nedload.com, cramit.in, megashares.com, letitbit.net, vip-file.com, x7.to, gigasize.com, filezzz.com, filebox.com, depositfiles.com, yourfilesender.com, bitshare.com, o cualquier otro servidor que uses, dvdfull, dvdr5, dvdrip, 720p, 1080p, archivos torrent, emule, soundtrack, banda sonora, OST. 



Evita poner contraseñas o nombres con url de otra web que no sea esta, evita las palabras ofensivas, evita hacer spam, recuerda que en este sitio se comparte solo por placer, así que cualquier aporte es bienvenido.



Para más información

Escríbenos a cinemadeculto@gmail.com

 
Support : Creating Website | Johny Template | Mas Template
Copyright © 2011. CultMoviez! - All Rights Reserved
Template Created by Creating Website Published by Mas Template
Proudly powered by Blogger