Halloween (1978) - CultMoviez!
Latest Movie :

Halloween (1978)


Imdb
Filmaffinity
Rottentomatoes


La noche de Halloween, el joven Michael, con sólo seis años, asesina a su familia con un cuchillo de cocina. Es internado en un psiquiátrico, pero huye quince años más tarde, el día antes de Halloween, la noche de las calabazas. El psicópata vuelve a su localidad, y comienza una serie de asesinatos. Mientras, uno de los doctores del psiquiátrico le sigue la pista...

Acá esta. Halloween sigue siendo y lo será (en mi opinión) el mejor slasher que se haya hecho. ¿Qué es lo que lo hace tan especial? Además de ser una pionera del género de terror (en el que hay un asesino imparable que algún elemento punzante se va llevando a todo aquel que se meta en su camino, o en su nombre más corto, “slasher”) es una de esas películas que la ves una sola vez y se te queda guardada para siempre, no la podes olvidar ni mucho menos el gusto que te deja.  Además esta magníficamente dirigida por John Carpenter y su director de fotografía Dean Cundey, donde al ser una película independiente (como muchas de este director) se tuvo que hacer eco el uso de la imaginación. Y así se hizo, con una ambientación cuasi nocturna, una banda sonora hecha por el mismo Carpenter que nos hacen relacionar cada imagen de la película con su partitura musical, y se creó uno de los psycho-killers más famosos del cine, Michael Myers.
El mismísimo Michael Myers es uno de los grandes aciertos de Carpenter. El darnos un asesino enmascarado que bien pudo ser interpretado por mismo Carpenter, ¿Quién se daría cuenta? Lo único que notamos es un hombre con una máscara blanca, sin vida, que puede ser cualquiera (o cualquier cosa) con unos ojos más oscuros que la noche. Uno de mis asesinos favoritos.

Además, también tengamos en cuenta que si bien Halloween es una de las mejores películas de terror que se hayan hecho y es considerada por muchos como el máximo exponente del cine slasher, resulta curioso el poquísimo derramamiento de sangre que hay. Y eso es un logro que podemos tener en cuenta, el terror sugerido que hay. En esta película no hay litros de sangre, tripas que vuelan ni nada por el estilo. Hay una especie de elegancia en Michael Myers y es algo que no supieron apreciar Joe Chappelle, Rick Rosenthal y ni siquiera Rob Zombie.

Y resulta aun más triste que de todo lo positivo que posee esta película, para el futuro montón de directores sin imaginación tomaron solamente lo más cutre y se exploto hasta el hartazgo una serie de clichés molestos.  Adolescentes teniendo sexo y drogándose, y un maniaco que los mata. Un desaprovechamiento de recursos y sangre sin sentido. Bastante lamentable. Yo sigo aplaudiendo a Carpenter, un genio del séptimo arte, que supo con Halloween dar un aprovechamiento total del espacio escénico para la creación atmosférica tan asfixiante y perturbadora que la caracteriza, sin la necesidad de la noche o de la típica mansión heredada.
(DVDRIP, DATOS DEL RIP, POSTERS, CAPS y TRAILER en Mas Información)






DATOS DEL RIP

File size                        : 699 MiB
Duration                         : 1h 31mn
Overall bit rate                 : 1 073 Kbps

Video
ID                               : 0
Format                           : MPEG-4 Visual
Format settings, BVOP            : Yes
Format settings, QPel            : No
Format settings, GMC             : No warppoints
Format settings, Matrix          : Default (H.263)
Muxing mode                      : Packed bitstream
Codec ID                         : DX50
Codec ID/Hint                    : DivX 5
Duration                         : 1h 31mn
Bit rate                         : 984 Kbps
Width                            : 704 pixels
Height                           : 304 pixels
Display aspect ratio             : 2.35:1
Frame rate                       : 23.976 fps
Color space                      : YUV
Chroma subsampling               : 4:2:0
Bit depth                        : 8 bits
Scan type                        : Progressive
Bits/(Pixel*Frame)               : 0.192
Stream size                      : 641 MiB (92%)
Title                            : Video
Writing library                  : DivX 6.2.5 (UTC 2006-07)

Audio
ID                               : 1
Format                           : MPEG Audio
Format version                   : Version 1
Format profile                   : Layer 3
Mode                             : Dual mono
Codec ID                         : 55
Codec ID/Hint                    : MP3
Duration                         : 1h 31mn
Bit rate mode                    : Constant
Bit rate                         : 80.0 Kbps
Channel(s)                       : 2 channels
Sampling rate                    : 48.0 KHz
Stream size                      : 52.1 MiB (7%)
Alignment                        : Split accross interleaves
Interleave, duration             : 42 ms (1.00 video frame)
Interleave, preload duration     : 500 ms
Title                            : Audio - en;02
Writing library                  : LAME3.92ªªªªLAME3.92

POSTERS




CAPS



TRAILER





Share this article :

+ comentarios + 8 comentarios

Diego
1 de noviembre de 2010, 0:02

Y ke te parecio el remake de rob zombie??

A mi parecio bastante aceptable y me gusto mucho la actuacion del niño en la de rob...
A mi me gustaron mucho las otras de rob zombie the devil´s reject y the house of 100 corpses

Diego
1 de noviembre de 2010, 0:06

Y ke te parecio el Remake de rob Zombie???
A mi me parecio bastante aceptable y bien logrado a ratos y me gusto mucho la aktuacion del niño e esa

Ademas las otras de Rob zombie son bastante buenas The Devil´s rejects and the House of 100 corpses

1 de noviembre de 2010, 0:31

estoy completamente de acuerdo el mejor asesino en serie del cine, un dato curioso
la mascara tan aterradora la es del capitan de viaje a las estrellas y costo algo asi como 2 dolares

1 de noviembre de 2010, 9:16

Estupenda!
Aunque para mi el mejor slasher de la historia seguira siendo "Navidades negras", de la cual Carpenter bebe bastante.
Gracias por el aporte por estas fechas!

OLDBOY
2 de noviembre de 2010, 0:44

Mi segunda favorita de Carpenter, despues de THE THING.

OLDBOY
6 de enero de 2011, 7:06

Mi segunda favorita de Carpenter, despues de THE THING.

Diego
6 de enero de 2011, 7:06

Y ke te parecio el Remake de rob Zombie???
A mi me parecio bastante aceptable y bien logrado a ratos y me gusto mucho la aktuacion del niño e esa

Ademas las otras de Rob zombie son bastante buenas The Devil´s rejects and the House of 100 corpses

12 de abril de 2012, 22:03

totalmente de acuerdo con la reseña. me dieron ganas de verla de nuevo
abrazo
e

Publicar un comentario en la entrada



Ayúdanos comentando las películas, puedes publicar subtítulos mejor sincronizados y en diferentes idiomas, mirrors en mediafire.com, Jumbofiles.com, bayfiles.com, glumbouploads.com, rapidshare.com, hotfile.com, nedload.com, cramit.in, megashares.com, letitbit.net, vip-file.com, x7.to, gigasize.com, filezzz.com, filebox.com, depositfiles.com, yourfilesender.com, bitshare.com, o cualquier otro servidor que uses, dvdfull, dvdr5, dvdrip, 720p, 1080p, archivos torrent, emule, soundtrack, banda sonora, OST. 



Evita poner contraseñas o nombres con url de otra web que no sea esta, evita las palabras ofensivas, evita hacer spam, recuerda que en este sitio se comparte solo por placer, así que cualquier aporte es bienvenido.



Para más información

Escríbenos a cinemadeculto@gmail.com

 
Support : Creating Website | Johny Template | Mas Template
Copyright © 2011. CultMoviez! - All Rights Reserved
Template Created by Creating Website Published by Mas Template
Proudly powered by Blogger