Monty Python's Life of Brian (1979) - CultMoviez!
Latest Movie :

Monty Python's Life of Brian (1979)


Imdb
Filmaffinity
Rottentomatoes


Brian nace en Judea, en un pesebre, y casi al mismo tiempo que Jesucristo. Tres reyes magos, confundidos por esta vecindad, creen que éste niño es el Mesías prometido, pero muy pronto queda evidente que, en realidad, el recién nacido es sencillamente... Brian.
Y si, los Monty Phyton fueron un grupo entrañable. Haciendo obras de teatro y una serie televisiva (la magnífica serie “Monty Phyton´s Flying Circus”) decidieron trasladarse luego a la pantalla grande donde comenzaron con “And Now for Something Completely Different” y un sinfín de hitos como lo fueron “Monty Python and the Holy Grail”, “Monty Python's The Meaning of Life” y la que hoy les presentamos, ”Monty Python's Life of Brian” una película de humor paródico influyente e icónico, que acarreo diversos problemas (siendo una de tantas películas) con grupos religiosos que la consideraron una película hereje por su contenido bíblico tratado con humor.
Es que además los Monty Phyton hacían un humor muy bien pensado, cada escena de esta película es un momento gracioso llevado a cabo con diálogos extensos y ridículos, momentos absurdos y malentendidos. Y sus personajes, genial Graham Chapman haciendo de Brian o Michael Palin, quien tiene un ligero defecto en el habla. John Cleese es líder de un grupo rebelde que tiene más debates que acción o la excelente escena del centurión corrigiendo la vandálica ortografía de Brian. Rebosa en momentos memorables esta película, donde también encontramos un manifiesto a la libertad de pensamiento y una crítica histriónica al fanatismo religioso.
También cabe mencionar esa canción mítica, me refiero a “Always Look on the Bright Side of Life” que más de uno habremos tarareado esperando el colectivo o tomando un ducha, y de la cual prefiero no decir más, gócenla ustedes mismos. (DVDRIP, DATOS DEL RIP, POSTERS, CAPS y TRAILER en Mas Información)




POSTERS



CAPS




DATOS DEL RIP


Format                           : AVI
Format/Info                      : Audio Video Interleave
File size                        : 700 MiB
Duration                         : 1h 29mn
Overall bit rate                 : 1 089 Kbps
Writing application              : VirtualDubMod 1.5.4.1 (build 2178/release)
Writing library                  : VirtualDubMod build 2178/release

Video
ID                               : 0
Format                           : MPEG-4 Visual
Format profile                   : Advanced Simple@L5
Format settings, BVOP            : Yes
Format settings, QPel            : No
Format settings, GMC             : No warppoints
Format settings, Matrix          : Custom
Codec ID                         : XVID
Codec ID/Hint                    : XviD
Duration                         : 1h 29mn
Bit rate                         : 901 Kbps
Width                            : 576 pixels
Height                           : 304 pixels
Display aspect ratio             : 1.895
Frame rate                       : 25.000 fps
Color space                      : YUV
Chroma subsampling               : 4:2:0
Bit depth                        : 8 bits
Scan type                        : Progressive
Bits/(Pixel*Frame)               : 0.206
Stream size                      : 579 MiB (83%)
Writing library                  : XviD 1.1.0 (UTC 2005-11-22)

Audio
ID                               : 1
Format                           : MPEG Audio
Format version                   : Version 1
Format profile                   : Layer 3
Mode                             : Joint stereo
Mode extension                   : MS Stereo
Codec ID                         : 55
Codec ID/Hint                    : MP3
Duration                         : 1h 29mn
Bit rate mode                    : Variable
Bit rate                         : 175 Kbps
Nominal bit rate                 : 192 Kbps
Channel(s)                       : 2 channels
Sampling rate                    : 48.0 KHz
Stream size                      : 113 MiB (16%)
Alignment                        : Aligned on interleaves
Interleave, duration             : 24 ms (0.60 video frame)
Interleave, preload duration     : 105 ms
Writing library                  : LAME3.97b
Encoding settings                : -m j -V 4 -q 2 -lowpass 18.6 --abr 192
Language                         : English
Share this article :

+ comentarios + 3 comentarios

16 de noviembre de 2010, 8:03

Tremendos los Monty Python's y las pelis del capitán caos. :D

Anónimo
25 de noviembre de 2010, 10:58

Gran película como todas las de este genial grupo. Vigente a pesar de sus 30 años al igual que "The Meaning of the Life" estrenada con el ridículo nombre de "Estamos todos Locos" o algo así. Muy buen blog, ya bajé varios títulos. Felicitaciones y muchas gracias.

Anónimo
17 de mayo de 2012, 11:38

ja ja jajjjj que trmenda peli. que subieron la vi hace una bocha en VHS... etsa barbara. la peli es un chiste pero no va en j--oda .muy recomendable ..

Publicar un comentario en la entrada



Ayúdanos comentando las películas, puedes publicar subtítulos mejor sincronizados y en diferentes idiomas, mirrors en mediafire.com, Jumbofiles.com, bayfiles.com, glumbouploads.com, rapidshare.com, hotfile.com, nedload.com, cramit.in, megashares.com, letitbit.net, vip-file.com, x7.to, gigasize.com, filezzz.com, filebox.com, depositfiles.com, yourfilesender.com, bitshare.com, o cualquier otro servidor que uses, dvdfull, dvdr5, dvdrip, 720p, 1080p, archivos torrent, emule, soundtrack, banda sonora, OST. 



Evita poner contraseñas o nombres con url de otra web que no sea esta, evita las palabras ofensivas, evita hacer spam, recuerda que en este sitio se comparte solo por placer, así que cualquier aporte es bienvenido.



Para más información

Escríbenos a cinemadeculto@gmail.com

 
Support : Creating Website | Johny Template | Mas Template
Copyright © 2011. CultMoviez! - All Rights Reserved
Template Created by Creating Website Published by Mas Template
Proudly powered by Blogger