Hellevator: Gusher no Bindume (2004) - CultMoviez!
Latest Movie :

Hellevator: Gusher no Bindume (2004)


Imdb
Filmaffinity
Rottentomatoes




Estas escuchando:The Faint - Agenda Suicide
  
El cine japones ya nos tiene habituados en esa fatalica construccion de un mundo futuro. La ultima parte del siglo XX, las producciones japonesas se bañaron en gore, slash, cyberpunk, en lo siniestro y todo aquello que vive a la sombra de lo bizarro.

Hellevator, es la primera cinta larga de Hiroki Yamaguchi, quien la dirigio y escribio. Situandose en una Japon distopica y deshumanizada, donde la tecnologia llego casi a su apogeo y la aparente seguridad de los ciudadanos se ve amenazada por grupos terroristas. Es bastante notable la similitud en este sentido con Brazil de Terry Gilliam.

En la cinta que nos amparamos, gigantescos edificios se comunican entre si por medio de enormes ascensores, cuasi unos tranvias ascendentes que sirven como transporte en esa lobrega ciudad. En uno de estos ascensores nos concentramos y nos encontramos con dos maniacos que desatan el terror en el ascensor.

La creciente atmosfera exasperante, manejada con elegancia por Yamaguchi, nos trasmite ese sentimiento claustrofobico de los protagonistas, quienes a su vez luchan por su supervivencia y contra su monstruos interiores; sumandole las normalidades japonesas, como las mujeres vestidas de colegialas y la sangre manchando el lugar como una manguera sin control, tenemos una buena pelicula de terror que merece su visionado.


(DVDRIP, DATOS DEL RIP, POSTERS, CAPS y TRAILER en Mas Informacion)





POSTERS  
CAPS
DATOS DEL RIP
Format                           : AVI
Format/Info                      : Audio Video Interleave
File size                        : 701 MiB
Duration                         : 1h 37mn
Overall bit rate                 : 1 007 Kbps
Writing application              : Nandub v1.0rc2
Writing library                  : Nandub build 1852/release

Video
ID                               : 0
Format                           : MPEG-4 Visual
Format profile                   : Simple@L3
Format settings, BVOP            : Yes
Format settings, QPel            : No
Format settings, GMC             : No warppoints
Format settings, Matrix          : Default (MPEG)
Codec ID                         : XVID
Codec ID/Hint                    : XviD
Duration                         : 1h 37mn
Bit rate                         : 861 Kbps
Width                            : 624 pixels
Height                           : 352 pixels
Display aspect ratio             : 16:9
Frame rate                       : 29.970 fps
Color space                      : YUV
Chroma subsampling               : 4:2:0
Bit depth                        : 8 bits
Scan type                        : Progressive
Bits/(Pixel*Frame)               : 0.131
Stream size                      : 600 MiB (86%)
Writing library                  : XviD 1.0.2 (UTC 2004-08-29)

Audio
ID                               : 1
Format                           : MPEG Audio
Format version                   : Version 1
Format profile                   : Layer 3
Mode                             : Joint stereo
Codec ID                         : 55
Codec ID/Hint                    : MP3
Duration                         : 1h 37mn
Bit rate mode                    : Variable
Bit rate                         : 131 Kbps
Minimum bit rate                 : 128 Kbps
Channel(s)                       : 2 channels
Sampling rate                    : 48.0 KHz
Stream size                      : 91.5 MiB (13%)
Alignment                        : Aligned on interleaves
Interleave, duration             : 24 ms (0.72 video frame)
Interleave, preload duration     : 138 ms
Writing library                  : LAME3.90.
Encoding settings                : -m j -V 1 -q 2 -lowpass 19.6 --vbr-new -b 128



TRAILER


Share this article :

+ comentarios + 4 comentarios

Anónimo
17 de agosto de 2011, 3:31

gracias por el aporte

Anónimo
4 de abril de 2012, 21:44

Se ve genial, hay que verla.
Como quisiera tener una novia japonesa colegiala
ññ

Anónimo
5 de abril de 2012, 8:30

Amigos, si pueden, continuen con jumbofiles.
Vuela!!!!Lo mas cercano a mediafire.

5 de abril de 2012, 15:49

Creo que ya esta definido que jumbo es nuestro servidor favorito

Publicar un comentario en la entrada



Ayúdanos comentando las películas, puedes publicar subtítulos mejor sincronizados y en diferentes idiomas, mirrors en mediafire.com, Jumbofiles.com, bayfiles.com, glumbouploads.com, rapidshare.com, hotfile.com, nedload.com, cramit.in, megashares.com, letitbit.net, vip-file.com, x7.to, gigasize.com, filezzz.com, filebox.com, depositfiles.com, yourfilesender.com, bitshare.com, o cualquier otro servidor que uses, dvdfull, dvdr5, dvdrip, 720p, 1080p, archivos torrent, emule, soundtrack, banda sonora, OST. 



Evita poner contraseñas o nombres con url de otra web que no sea esta, evita las palabras ofensivas, evita hacer spam, recuerda que en este sitio se comparte solo por placer, así que cualquier aporte es bienvenido.



Para más información

Escríbenos a cinemadeculto@gmail.com

 
Support : Creating Website | Johny Template | Mas Template
Copyright © 2011. CultMoviez! - All Rights Reserved
Template Created by Creating Website Published by Mas Template
Proudly powered by Blogger